Quick Browse
Movies
TV shows
Music
Games
Applications
Anime
Other
Facebook
Advertising

Friends
Torrent Download
Movie4u
1337x.to
Torrent Downloads




Verified torrent Eminem ft Lil Wayne - No Love [KingPinVideos]


    Seeders : 428      Leechers : 25
Hash :C991A1F0E69C2ADAA73524BF6A7F9961DD79220A
Added :1 Year+ by KingPinVerified torrent uploader in Music - Music Videos
Size :105.22 MB
Stream :WATCH ONLINE @ Movie4u


Eminem ft Lil Wayne - No Love [KingPinVideos]
Free and Fast Download with Usenet 300GB+ free







Trackers List

Tracker NameLast CheckStatusSeedersLeechers




Torrent File Content (5 files)


Eminem ft Lil Wayne - No Love [KingPinVideos]
     Eminem ft Lil Wayne - No Love [KingPinVideos].mpg -
105.22 MB

     Eminem ft Lil Wayne - No Love [KingPinVideos].nfo -
1.9 KB

     Eminem ft Lil Wayne - No Love [KingPinVideos].txt -
1.63 KB

     Torrent downloaded from Demonoid.com.txt -
47 bytes

     Torrent Downloaded from Limetorrents.com.txt -
46 bytes



Description



http://img706.imageshack.us/img706/5417/eminemnolove4.png


http://img651.imageshack.us/img651/4936/eminemnolove3.png


[code]General
Complete name : Eminem ft Lil Wayne - No Love [KingPinVideos].mpg
Format : MPEG-PS
File size : 105 MiB
Duration : 5mn 9s
Overall bit rate : 2 856 Kbps
Writing library : encoded by TMPGEnc 4.0 XPress Version. 4.7.4.299

Video
ID : 224 (0xE0)
Format : MPEG Video
Format version : Version 1
Format settings, BVOP : Yes
Format settings, Matrix : Default
Duration : 5mn 9s
Bit rate mode : Constant
Bit rate : 2 615 Kbps
Nominal bit rate : 2 700 Kbps
Width : 384 pixels
Height : 208 pixels
Display aspect ratio : 16:9
Frame rate : 29.970 fps
Resolution : 8 bits
Scan type : Progressive
Bits/(Pixel*Frame) : 1.092
Stream size : 96.3 MiB (92%)
Writing library : TMPGEnc XPress 4.7.4.299

Audio
ID : 192 (0xC0)
Format : MPEG Audio
Format version : Version 1
Format profile : Layer 2
Duration : 5mn 8s
Bit rate mode : Constant
Bit rate : 128 Kbps
Channel(s) : 2 channels
Sampling rate : 48.0 KHz
Stream size : 4.71 MiB (4%)[/code]

Related torrents

Torrent NameAddedSizeSeedLeechHealth
1 Year+ - in Movies19.7 MB00
1 Year+ - in Movies80.5 MB1217
1 Year+ - in Music17.3 MB00
1 Year+ - in Music4.63 MB04
1 Year+ - in Music75.59 MB00

Comments (0 Comments)




Please login or create a FREE account to post comments

Latest Searches

| fired up hush | Taking Back Sunday Tell All Your Friends | britney amber femdom | TAm L movie | two old ones | free pro tools 9 | gorgeous black woman | b g gutta gutta | once upon a time s05 1080p hevc | savas kool |