Quick Browse
Movies
TV shows
Music
Games
Applications
Anime
Other

Donate and Support

Friends
Torrents.me
Torrent Download
Free Movies
1337x
RARBG
Torrent Downloads

Verified torrent End of Days 1999 DvDrip_minstrel.avi


    Seeders : 0      Leechers : 0
Hash :61FB952B51F493504A123D48C016349A44CAC1E9
Added :1 Year+ by minstrelVerified torrent uploader in Movies
Size :705.76 MB
Stream :Watch Full Movies Online @ Movie4u
Share :


End of Days 1999 DvDrip_minstrel.avi
Anonymous and Direct Download 300GB+ free







Warning! Do not Download Torrents Without a VPN!
Your IP Address is .   And Location is
Your Internet Provider and Government can track your torrent Activity!  Hide your IP ADDRESS with a VPN!
We Strongly Recommend Using SpyOFF Torrent VPN to Anonymize your Torrenting. It's FREE For 15 Days!

Note :

Please Update (Trackers Info) Before Downloading Torrents to See Updated Seeders And Leechers for Batter Download Speed.

Trackers List

Tracker NameLast CheckStatusSeedersLeechers
http://tracker.nwps.ws:6969/announce6 months agosuccess00
udp://tracker.coppersurfer.tk:806 months agosuccess00
udp://tracker.ilibr.org:6969/announce6 months agosuccess00
http://torrent-tracker.ru/announce.php6 months agosuccess00
udp://ipv4.tracker.harry.lu:80/announce6 months agosuccess00
http://tracker.trackerfix.com/announce6 months agosuccess00




Torrent File Content (1 file)


     End of Days 1999 DvDrip_minstrel.avi -
705.76 MB



Description



Complete Name: End Of Days 1999 DvDrip_minstrel
Format : AVI
Format/Info : Audio Video Interleave
File size : 706 MiB
Duration : 1h 57mn
Overall bit rate : 843 Kbps
Video #0
ID : 0
Format : MPEG-4 Visual
Format profile : [email protected]
Format settings, BVOP : No
Format settings, QPel : No
Format settings, GMC : No warppoints
Format settings, Matrix : Default (H.263)
Codec ID : XVID
Codec ID/Hint : XviD
Duration : 1h 57mn
Bit rate : 734 Kbps
Width : 640 pixels
Height : 272 pixels
Display aspect ratio : 2.35:1
Frame rate : 25.000 fps
Resolution : 24 bits
Colorimetry : 4:2:0
Scan type : Progressive
Bits/(Pixel*Frame) : 0.169
Stream size : 615 MiB (87%)
Writing library : XviD 1.1.0 (UTC 2005-11-22)
Audio #1
ID : 1
Format : MPEG Audio
Format version : Version 1
Format profile : Layer 3
Codec ID : 55
Codec ID/Hint : MP3
Duration : 1h 56mn
Bit rate mode : Constant
Bit rate : 96.0 Kbps
Channel(s) : 2 channels
Sampling rate : 48.0 KHz
Resolution : 16 bits
Stream size : 80.3 MiB (11%)
Alignment : Aligned on interleaves
Interleave, duration : 24 ms (0.60 video frame)
Interleave, preload duration : 504 ms
Language : english

Cast


Arnold Schwarzenegger ... Jericho Cane

Gabriel Byrne ... The Man / Satan

Robin Tunney ... Christine York

Kevin Pollak ... Bobby Chicago

CCH Pounder ... Detective Margie Francis

Derrick O'Connor... Thomas Aquinas

David Weisenberg... OB / GYN

Rainer Judd ... Christine's Mother

Miriam Margolyes... Mabel

Udo Kier ... Head Priest
Victor Varnado ... Albino
Michael O'Hagan ... Cardinal
Mark Margolis ... Pope
Jack Shearer ... Kellogg
Rod Steiger ... Father Kovak




On December 28th, 1999, the citizens of New York City are getting ready for the turn of the millennium. However, the Devil decides to crash the party by coming to the city, inhabiting a man's body, and searching for his chosen bride, a 20-year-old woman named Christine York. If he bears her child between 11:00 PM and midnight on New Year's Eve, the world will end, and the only hope lies within an atheist ex-cop named Jericho Cane, who no longer believes in God because of the murder of his wife and daughter.


Related torrents

Torrent NameAddedSizeSeedLeechHealth
1 Year+ - in Movies705.76 MB12
2 months ago - in Other2.23 GB13
1 Year+ - in Movies10.93 GB00
1 Year+ - in Movies1.47 GB01
1 Year+ - in Movies1.17 GB00
1 Year+ - in Movies2.05 GB00

Comments (0 Comments)




Please login or create a FREE account to post comments

Latest Searches

| anal youngs | Jav Uncensored Heyzo 1212 | animat | power so 4 | alejandra guzman 320kbps | wwe paige stars in the night | TUJAMO DELIRIOUS BONELESS | tobor the great | vivavoce | high heels xxx |