Quick Browse
Movies
TV shows
Music
Games
Applications
Anime
Other
Facebook
Advertising

Friends
Torrent Download
Movie4u
1337x.to
Torrent Downloads




Verified torrent Endhiran~2010~PDVD-RIP~Xvid~Striker~TDA


    Seeders : 0      Leechers : 0
Hash :88B2A717866F6C6FE3D8843C5366206236BD953B
Added :1 Year+ by striker123Verified torrent uploader in Movies
Size :891.14 MB
Stream :WATCH ONLINE @ Movie4u


Endhiran~2010~PDVD-RIP~Xvid~Striker~TDA
Free and Fast Download with Usenet 300GB+ free







Trackers List

Tracker NameLast CheckStatusSeedersLeechers




Torrent File Content (4 files)


Endhiran~2010~PDVD-RIP~Striker~TDA
     Endhiran~2010~PDVD-RIP~Striker~TDA.avi -
890.47 MB

     TeamTDA.jpg -
681.47 KB

     More Movies.url -
112 bytes

     Tracked By DesiAdda.com.txt -
23 bytes



Description



http://img.xcitefun.net/users/2010/07/193008,xcitefun-endhiran-cover.jpg


http://www.image.videorockers.in/hosted/90fd1472acca77fa1ca3fd9bf9c23760.jpg


http://i51.tinypic.com/n13txv.png


[CODE]
General

Format : AVI
Format/Info : Audio Video Interleave
File size : 890 MiB
Duration : 2h 49mn
Overall bit rate : 734 Kbps

Video
ID : 0
Format : MPEG-4 Visual
Format profile : [email protected]
Format settings, BVOP : Yes
Format settings, QPel : No
Format settings, GMC : No warppoints
Format settings, Matrix : Default (MPEG)
Codec ID : XVID
Codec ID/Hint : XviD
Duration : 2h 49mn
Bit rate : 593 Kbps
Width : 608 pixels
Height : 256 pixels
Display aspect ratio : 2.35:1
Frame rate : 23.976 fps
Resolution : 24 bits
Colorimetry : 4:2:0
Scan type : Progressive
Bits/(Pixel*Frame) : 0.159
Stream size : 720 MiB (81%)
Writing library : XviD 1.2.1 (UTC 2008-12-04)

Audio
ID : 1
Format : MPEG Audio
Format version : Version 1
Format profile : Layer 3
Codec ID : 55
Codec ID/Hint : MP3
Duration : 2h 49mn
Bit rate mode : Constant
Bit rate : 128 Kbps
Channel(s) : 2 channels
Sampling rate : 48.0 KHz
Resolution : 16 bits
Stream size : 155 MiB (17%)
Alignment : Split accross interleaves
Interleave, duration : 24 ms (0.58 video frame)
Writing library : LAME3.98.


[/CODE]

http://i51.tinypic.com/2cgga6v.png


http://i50.photobucket.com/albums/f330/shahaz123/Endhiran2010PDVD-RIPStrikerTDAavi_thumbs_20101005_235715.jpg


http://i55.tinypic.com/2dah9bk.png

Related torrents

Torrent NameAddedSizeSeedLeechHealth
1 Year+ - in Movies300.37 MB10
Verified torrent
1 Year+ - in Movies7.6 GB23
10 months ago - in Movies8.34 GB00
1 Year+ - in Movies8.34 GB11
1 Year+ - in Movies8.34 GB13

Comments (0 Comments)




Please login or create a FREE account to post comments

Latest Searches

| future no what | big tits mackenzee | now i m that bitch livvi franc | dr d strange | Jazmyn x265 | iCon Steve Jobs the Greatest Second Act in the History of Business | Become a Lead | fresh off s03e07 | friends of the people s02e02 480p x264 msd | Amateur Photographer 10 December 2016 |