Quick Browse
Movies
TV shows
Music
Games
Applications
Anime
Other
Facebook
Advertising

Friends
Torrent Download
Movie4u
1337x.to
Torrent Downloads




Verified torrent Enemy at the Gates 2001 BRRip Hindi~3385VKSH


    Seeders : 2      Leechers : 11
Hash :28736C0EEB1AB4BA31F6B960AD7B41BBFD23FFFD
Added :1 Year+ by VKS3385Verified torrent uploader in Movies
Size :1.99 GB
Stream :WATCH ONLINE @ Movie4u


Enemy at the Gates 2001 BRRip Hindi~3385VKSH
Free and Fast Download with Usenet 300GB+ free







Trackers List

Tracker NameLast CheckStatusSeedersLeechers




Torrent File Content (2 files)


Enemy at the gates BRRip Hindi
     Enemy at the Gates 2001 BRRip HIndi.mkv -
1.99 GB

     HD Desi Rockers Releases.docx -
82.03 KB



Description



http://img340.imageshack.us/img340/1050/hddesirockers.png

http://img62.imageshack.us/img62/5382/roadsignphp.png


http://img62.imageshack.us/img62/8750/eatgbrd3d.jpg


http://img836.imageshack.us/img836/3343/25ic0hd1.png


http://img148.imageshack.us/img148/6484/enemyatthegates01.jpg


In World War II, the fall of Stalingrad will mean the collapse of the whole country. The Germans and Russians are fighting over every block, leaving only ruins behind. The Russian sniper Vassili Zaitsev stalks the Germans, taking them out one by one, thus hurting the morale of the German troops. The political officer Danilov leads him on, publishing his efforts to give his countrymen some hope. But Vassili eventually start to feel that he can not live up to the expectations on him. He and Danilov fall in love with the same girl, Tanya, a female soldier. From Germany comes the master sniper König to put an end to the extraordinary skilled Russian sniper.

http://img714.imageshack.us/img714/4783/9k1gty1.png


Jude Law ... Vassili Zaitsev

Ed Harris ... Major König

Rachel Weisz ... Tania Chernova

Joseph Fiennes ... Commisar Danilov

Bob Hoskins ... Nikita Khrushchev

Ron Perlman ... Koulikov

Eva Mattes ... Mother Filipov

Gabriel Thomson ... Sacha Filipov (as Gabriel Marshall-Thomson)

Matthias Habich ... General Paulus

Sophie Rois ... Ludmilla

Ivan Shvedoff ... Volodya

Mario Bandi ... Anton

Hans Martin Stier ... Red Army General

Clemens Schick ... German NCO (as Clemans Schick)

Mikhail N. Matveev ... Grandfather (as Mikhail Matveev)


http://i50.tinypic.com/zvbzx2.jpg


General
Complete name : Enemy at the Gates 2001 BRRip HIndi~3385VKSH
Format : Matroska
File size : 1.99 GiB
Duration : 2h 5mn
Overall bit rate : 2 264 Kbps
Encoded date : UTC 2010-08-19 06:00:22
Writing application : mkvmerge v4.2.0 ('No Talking') built on Jul 28 2010 18:38:23
Writing library : libebml v1.0.0 + libmatroska v1.0.0


http://img412.imageshack.us/img412/7057/imdb3.png

[size=3]http://www.imdb.com/title/tt0215750[/size]

http://img37.imageshack.us/img37/7218/vlcfile.png

Video
ID : 1
Format : AVC
Format/Info : Advanced Video Codec
Format profile : [email protected]
Format settings, CABAC : Yes
Format settings, ReFrames : 4 frames
Muxing mode : Container [email protected]
Codec ID : V_MPEG4/ISO/AVC
Duration : 2h 5mn
Bit rate : 1 957 Kbps
Width : 1 280 pixels
Height : 544 pixels
Display aspect ratio : 2.35:1
Frame rate : 25.000 fps
Original frame rate : 23.976 fps
Color space : YUV
Chroma subsampling : 4:2:0
Bit depth : 8 bits
Scan type : Progressive
Bits/(Pixel*Frame) : 0.112
Stream size : 1.75 GiB (88%)


http://img248.imageshack.us/img248/6613/musicfile1.png

Audio
ID : 2
Format : MPEG Audio
Format version : Version 1
Format profile : Layer 3
Codec ID : A_MPEG/L3
Codec ID/Hint : MP3
Duration : 1h 0mn
Bit rate mode : Constant
Bit rate : 224 Kbps
Channel(s) : 2 channels
Sampling rate : 44.1 KHz
Stream size : 96.5 MiB (5%)
Writing library : LAME3.96r
Encoding settings : -m s -V 4 -q 2 -lowpass 20 -b 224
Language : Hindi


http://i50.tinypic.com/2qtwdv8.jpg


http://img28.imageshack.us/img28/730/enemyatthegates2001brri.jpg


http://img801.imageshack.us/img801/730/enemyatthegates2001brri.jpg


http://img228.imageshack.us/img228/730/enemyatthegates2001brri.jpg


http://img85.imageshack.us/img85/730/enemyatthegates2001brri.jpg


http://img15.imageshack.us/img15/730/enemyatthegates2001brri.jpg



[SIZE=5]Sample[/SIZE]

http://hotfile.com/dl/67328842/8ae71b4/Enemy_at_the_Gates_2001_BRRip_HIndi_Sample.mkv.html

http://i49.tinypic.com/zoap2a.jpg


http://img690.imageshack.us/img690/2538/2s9d1cg.gif

http://i49.tinypic.com/28v8wmr.jpg


http://img205.imageshack.us/img205/91/15880378.png

http://img695.imageshack.us/img695/7097/6sdez7.gif

Related torrents

Torrent NameAddedSizeSeedLeechHealth
1 Year+ - in Movies1.5 GB00
1 Year+ - in Movies1.26 GB518
1 Year+ - in Movies2.79 GB11
1 Year+ - in Movies2.79 GB02
1 Year+ - in Movies396.6 MB03

Comments (0 Comments)




Please login or create a FREE account to post comments

Latest Searches

| Fucking With The Stars 3 | Adelantado Trilogy Book Two Full PreCracked Foxy Games | ABP 539 10 | avengers movie mp3 | judas priest complete albums | 4 eva and a day | Channel Zero Season 1 Complete HDTV x264 i c | hook sound of your | navidades luis miguel | Unity Asset URG Developer Edition |