Quick Browse
Movies
TV shows
Music
Games
Applications
Anime
Other
Facebook
Advertising

Friends
Torrent Download
Movie4u
1337x.to
Torrent Downloads




Envy.DVDScr.Xvid-TA.torrent_[trackeraccess_org]


    Seeders : 0      Leechers : 0
Hash :1CAC2A6023F1C8613D71868CE951096AE1D00D75
Added :1 Year+ in Movies
Size :780.78 MB
Stream :WATCH ONLINE @ Movie4u


Envy.DVDScr.Xvid-TA.torrent_[trackeraccess_org]
Free and Fast Download with Usenet 300GB+ free







Trackers List

Tracker NameLast CheckStatusSeedersLeechers




Torrent File Content (58 files)


Envy.DVDScr.Xvid-TA
     Envy.DVDScr.Xvid-TA.part30.rar -
13.97 MB

     Envy.DVDScr.Xvid-TA.part04.rar -
13.97 MB

     Envy.DVDScr.Xvid-TA.part02.rar -
13.97 MB

     Envy.DVDScr.Xvid-TA.part03.rar -
13.97 MB

     Envy.DVDScr.Xvid-TA.part05.rar -
13.97 MB

     Envy.DVDScr.Xvid-TA.part06.rar -
13.97 MB

     Envy.DVDScr.Xvid-TA.part07.rar -
13.97 MB

     Envy.DVDScr.Xvid-TA.part08.rar -
13.97 MB

     Envy.DVDScr.Xvid-TA.part09.rar -
13.97 MB

     Envy.DVDScr.Xvid-TA.part10.rar -
13.97 MB

     Envy.DVDScr.Xvid-TA.part11.rar -
13.97 MB

     Envy.DVDScr.Xvid-TA.part12.rar -
13.97 MB

     Envy.DVDScr.Xvid-TA.part13.rar -
13.97 MB

     Envy.DVDScr.Xvid-TA.part14.rar -
13.97 MB

     Envy.DVDScr.Xvid-TA.part15.rar -
13.97 MB

     Envy.DVDScr.Xvid-TA.part16.rar -
13.97 MB

     Envy.DVDScr.Xvid-TA.part17.rar -
13.97 MB

     Envy.DVDScr.Xvid-TA.part18.rar -
13.97 MB

     Envy.DVDScr.Xvid-TA.part19.rar -
13.97 MB

     Envy.DVDScr.Xvid-TA.part20.rar -
13.97 MB

     Envy.DVDScr.Xvid-TA.part21.rar -
13.97 MB

     Envy.DVDScr.Xvid-TA.part22.rar -
13.97 MB

     Envy.DVDScr.Xvid-TA.part23.rar -
13.97 MB

     Envy.DVDScr.Xvid-TA.part24.rar -
13.97 MB

     Envy.DVDScr.Xvid-TA.part25.rar -
13.97 MB

     Envy.DVDScr.Xvid-TA.part26.rar -
13.97 MB

     Envy.DVDScr.Xvid-TA.part27.rar -
13.97 MB

     Envy.DVDScr.Xvid-TA.part28.rar -
13.97 MB

     Envy.DVDScr.Xvid-TA.part29.rar -
13.97 MB

     Envy.DVDScr.Xvid-TA.part01.rar -
13.97 MB

     Envy.DVDScr.Xvid-TA.part31.rar -
13.97 MB

     Envy.DVDScr.Xvid-TA.part32.rar -
13.97 MB

     Envy.DVDScr.Xvid-TA.part33.rar -
13.97 MB

     Envy.DVDScr.Xvid-TA.part34.rar -
13.97 MB

     Envy.DVDScr.Xvid-TA.part35.rar -
13.97 MB

     Envy.DVDScr.Xvid-TA.part36.rar -
13.97 MB

     Envy.DVDScr.Xvid-TA.part37.rar -
13.97 MB

     Envy.DVDScr.Xvid-TA.part38.rar -
13.97 MB

     Envy.DVDScr.Xvid-TA.part39.rar -
13.97 MB

     Envy.DVDScr.Xvid-TA.part40.rar -
13.97 MB

     Envy.DVDScr.Xvid-TA.part41.rar -
13.97 MB

     Envy.DVDScr.Xvid-TA.part42.rar -
13.97 MB

     Envy.DVDScr.Xvid-TA.part43.rar -
13.97 MB

     Envy.DVDScr.Xvid-TA.part44.rar -
13.97 MB

     Envy.DVDScr.Xvid-TA.part45.rar -
13.97 MB

     Envy.DVDScr.Xvid-TA.part46.rar -
13.97 MB

     Envy.DVDScr.Xvid-TA.part47.rar -
13.97 MB

     Envy.DVDScr.Xvid-TA.part48.rar -
13.97 MB

     Envy.DVDScr.Xvid-TA.part49.rar -
13.97 MB

     Envy.DVDScr.Xvid-TA.part50.rar -
13.97 MB



Description



Envy.DVDScr.Xvid-TA

http://cover7.cduniverse.com/MuzeVideoArt/89/2505989.jpg


IMDb URL...:http://www.imdb.com/title/tt0462275/


Category Rap/Hip Hop DVDs, Urban Drama Movies, Urban Action Videos, Dramas, Crime, Murder,

Urban Life, Drug Dealers, Urban Violence
Starring Lisa Raye, Ray J, Maia Campbell, Azie
ENVY follows the lives of 2 cousins trying to survive on the crime ridden, drug infested streets of

Detroit. Alvin Clawson, 'AJ' (Ray J), grows up idolizing the lifestyle of his older cousin Charles

Clawson, 'Caesar' (AZ), lives. AJ has always been lured to the streets despite his positive

upbringing. As AJ gets older, he quickly finds himself playing a major role in Caesar's drug

conglomerate. Caesar recognizes things are changing. Federal indictments, murders, snitches, and

turncoats are rampant in this world. When Caesar's position is challenged a message has to be sent.

Caesar comes up with a plan to teach his rivals a lesson. What he doesn't anticipate is the

overwhelming power of greed and jealousy.

Set amidst the urban decay of modern-day Detroit, this indie drama follows two cousins, AJ (Ray Jay)

and Caesar (AZ), as they navigate the perils of the drug trade. Despite his family’s best efforts to

keep him off the streets, AJ is nonetheless drawn to Caesar’s underworld lifestyle; in a matter of

months, he graduates from tag-along to full-blown player in a massive criminal organization.

This is the only Ray J video. Stars also making their debut in this video: Azie.


Source : IMAGiNE
Complete name : Envy.DVDScr.Xvid-TA.avi
Format : AVI
Format/Info : Audio Video Interleave
File size : 781 MiB
Duration : 1h 35mn
Overall bit rate : 1 148 Kbps
Writing application : VirtualDubMod 1.5.10.2 (build 2540/release)
Writing library : VirtualDub build 30091/release

Video
ID : 0
Format : MPEG-4 Visual
Format profile : [email protected]
Format settings, BVOP : Yes
Format settings, QPel : No
Format settings, GMC : No warppoints
Format settings, Matrix : Default (H.263)
Muxing mode : Packed bitstream
Codec ID : XVID
Codec ID/Hint : XviD
Duration : 1h 35mn
Bit rate : 946 Kbps
Width : 720 pixels
Height : 410 pixels
Display aspect ratio : 16:9
Frame rate : 23.976 fps
Resolution : 24 bits
Colorimetry : 4:2:0
Scan type : Progressive
Bits/(Pixel*Frame) : 0.134
Stream size : 644 MiB (82%)
Writing library : XviD 1.2.1 (UTC 2008-12-04)


Audio
ID : 1
Format : AC-3
Format/Info : Audio Coding 3
Codec ID : 2000
Duration : 1h 35mn
Bit rate mode : Constant
Bit rate : 192 Kbps
Channel(s) : 2 channels
Channel positions : L R
Sampling rate : 48.0 KHz
Stream size : 131 MiB (17%)
Alignment : Split accross interleaves
Interleave, duration : 42 ms (1.00 video frame)
Interleave, preload duration : 500 ms

Screens:

http://i50.tinypic.com/msjdyo.jpg

http://i49.tinypic.com/syt2xu.jpg

http://i48.tinypic.com/2zrdqu8.jpg


Enjoy,
TA rg

Related torrents

Torrent NameAddedSizeSeedLeechHealth
1 Year+ - in Movies832.83 MB00
1 Year+ - in Movies784.1 MB2227
1 Year+ - in Movies1.65 GB01
1 Year+ - in Music174.55 MB5849
1 Year+ - in Music386.57 MB64
1 Year+ - in Music214.06 MB4511

Comments (0 Comments)




Please login or create a FREE account to post comments

Latest Searches

| a tale of love darkness | waiting for superman 1080p | Love Moms Tina Kay Hot British Mom Fingering Herself | fasser | Hollywood movies collection in hindi | TransAtPlay Trans500 Shaidel Sweet Solo Feline Frenzy | p Diddy Last night | Black Mirror Nosedive | machine gun kelly ft bone | BMW DVD Road MAP Europe Professional |