Quick Browse
Movies
TV shows
Music
Games
Applications
Anime
Other
Facebook
Advertising

Friends
Torrent Download
Movie4u
1337x.to
Torrent Downloads




Verified torrent Evidence 2011 DVDRIP XViD AC3-26K


    Seeders : 1      Leechers : 0
Hash :029DA5710D0962C1208972A7F31681728C73EF3E
Added :1 Year+ by memory100Verified torrent uploader in Movies
Size :1.75 GB
Stream :WATCH ONLINE @ Movie4u


Evidence 2011 DVDRIP XViD AC3-26K
Free and Fast Download with Usenet 300GB+ free







Trackers List

Tracker NameLast CheckStatusSeedersLeechers




Torrent File Content (9 files)


Evidence 2011 DVDRIP XViD AC3-26K
     att-networks.com.txt -
39 bytes

     Evidence 2011 DVDRIP XViD AC3-26K.avi -
1.7 GB

     Evidence 2011 DVDRIP XViD AC3-26K.nfo -
3.55 KB

     HDSceneRG.txt -
115 bytes

     sample.avi -
44.85 MB

     sceneunderground.org.txt -
77 bytes

     Torrent downloaded from Demonoid.me.txt -
46 bytes

     Torrent downloaded from rarbg.com.txt.txt -
0 bytes

     YouTube Latest Releases And Archive.txt -
80 bytes



Description



http://img546.imageshack.us/img546/6080/evidencej.jpg

[code]
Evidence 2011 DVDRIP XViD AC3-26K

Imdb:
http://www.imdb.com/title/tt1640218/

Plot:
Ryan is making a documentary on his friend, Brett, about camping for the first time. However, once

they begin camping, they discover that there is a mysterious figure that is hunting them.

Sources:
DVDR THNXS!!

Notes:
the dvdr it self had ac3 2.0 as the audioo no 6 channels.... with that video quality is great.. so

enjoy!

Greetz:
Xtreme

Encode|FYA|ILLUMANTI|CM8|RX|VISION|HDSCENE|NIGHTMAREZ|xTriLL|DTRG|CRYS|REMIXHD|BIDA|RX|REFILL|INSPiRAL

|SIC|ZOMBIESZ|HOPE|Anonymous|GooN
To all the people who have helped me :P you know who you are

Anything to offer email us @: [email protected]

Video
ID : 0
Format : MPEG-4 Visual
Format profile : Advanced [email protected]
Format settings, BVOP : 2
Format settings, QPel : No
Format settings, GMC : No warppoints
Format settings, Matrix : Default (H.263)
Muxing mode : Packed bitstream
Codec ID : XVID
Codec ID/Hint : XviD
Duration : 1h 18mn
Bit rate : 2 902 Kbps
Width : 720 pixels
Height : 400 pixels
Display aspect ratio : 16:9
Frame rate : 23.976 fps
Color space : YUV
Chroma subsampling : 4:2:0
Bit depth : 8 bits
Scan type : Progressive
Compression mode : Lossy
Bits/(Pixel*Frame) : 0.420
Stream size : 1.59 GiB (94%)
Writing library : XviD 64

Audio
ID : 1
Format : AC-3
Format/Info : Audio Coding 3
Mode extension : CM (complete main)
Codec ID : 2000
Duration : 1h 18mn
Bit rate mode : Constant
Bit rate : 192 Kbps
Channel(s) : 2 channels
Channel positions : Front: L R
Sampling rate : 44.1 KHz
Bit depth : 16 bits
Compression mode : Lossy
Stream size : 108 MiB (6%)
Alignment : Aligned on interleaves
Interleave, duration : 70 ms (1.67 video frames)
Interleave, preload duration : 208 ms
Title : Title 06

[/code]
Screens:
http://i.imgur.com/ul4fm.png

http://i.imgur.com/hJXk2.png

http://img849.imageshack.us/img849/613/vlcsnap2012022922h43m10.png

http://img33.imageshack.us/img33/8223/vlcsnap2012022922h47m01.png

http://img190.imageshack.us/img190/6831/vlcsnap2012022922h47m21.png

http://img560.imageshack.us/img560/2259/vlcsnap2012022922h47m32.png

http://img857.imageshack.us/img857/1170/vlcsnap2012022922h47m43.png


Alternative screens:
http://www.hotimg.com/image/4akZN3h
http://dippic.com/ocbkbrqy4yan
http://imgdepot.org/show/20120229/2/900193_vlcsnap_2012_02_29_22h43m10s62.png
http://www.imageporter.com/n65f3u0mcl76/vlcsnap-2012-02-29-22h42m19s77.png

http://img851.imageshack.us/img851/5503/26ks.jpg

Thank you smallz for banner!

Related torrents

Torrent NameAddedSizeSeedLeechHealth
1 Year+ - in Movies714.56 MB00
1 Year+ - in Movies864.3 MB212
1 Year+ - in Movies704.67 MB00
Verified torrent
1 Year+ - in Movies704.66 MB321106
1 Year+ - in Movies1.96 GB2129

Comments (0 Comments)




Please login or create a FREE account to post comments

Latest Searches

| maria iglesias | MIRD uncensored | The Dog Who Saved Summer 2015 | OUUU OUOO UUUO OUOUUO 25 | Marc Dorcel La Femme En Noir DVDRiPMarc Dorcel La Femme En Noir DVDRiP | better call saul ITA mkv | EVIL ANGEL LIQUID LESBIANS | FAKings a Katia San Andres | SHADOWS hindi | Doctor Who The Curse of Fatal Death 1999 |