Quick Browse
Movies
TV shows
Music
Games
Applications
Anime
Other
Facebook
Advertising

Friends
Torrent Download
Movie4u
1337x.to
Torrent Downloads




Verified torrent Exam [2009] [DVD] [AC3] [Hannspree]


    Seeders : 2      Leechers : 0
Hash :9E48314DB3AE098DB21C1121C5CB75B7FEC80A18
Added :1 Year+ by HannspreeVerified torrent uploader in Movies
Size :1.09 GB
Stream :WATCH ONLINE @ Movie4u


Exam [2009] [DVD] [AC3] [Hannspree]
Free and Fast Download with Usenet 300GB+ free







Trackers List

Tracker NameLast CheckStatusSeedersLeechers




Torrent File Content (11 files)


Exam
    Exam [DVD]
          VIDEO_TS/VIDEO_TS.BUP -
12 KB

          VIDEO_TS/VIDEO_TS.IFO -
12 KB

          VIDEO_TS/VIDEO_TS.VOB -
58 KB

          VIDEO_TS/VTS_01_0.BUP -
66 KB

          VIDEO_TS/VTS_01_0.IFO -
66 KB

          VIDEO_TS/VTS_01_0.VOB -
58 KB

          VIDEO_TS/VTS_01_1.VOB -
1023.97 MB

          VIDEO_TS/VTS_01_2.VOB -
92.5 MB

          Exam [DVD] Covers/Exam - Cover.jpg -
314.92 KB

          Exam [DVD] Covers/Exam -Disc.jpg -
146.25 KB

     Exam [DVD].NFO -
7.33 KB



Description



=========================================================================================================================
[ Another free and high quality, ready to burn DVD - I will be adding new torrents on a daily basis - Remember to seed ]
=========================================================================================================================
MOVIE TITLE: Exam
LANGUAGE: English
MOVIE SUBS: No - (subtitles if/when required)
BURN TESTED: Yes
FORMAT: Pal
GENRE: Thriller
RUNTIME: 97 Minutes
YEAR: 2009
IMDB LINK: http://www.imdb.com/title/tt1258197/
=========================================================================================================================
GENERAL MOVIE DESC:

Eight talented candidates have reached the final stage of selection to join the ranks of a mysterious and powerful corporation. Entering a windowless room, an Invigilator gives them eighty minutes to answer one simple question. He outlines three rules they must obey or be disqualified don't talk to him or the armed guard by the door, don't spoil their papers and don't leave the room. He starts the clock and leaves. The candidates turn over their question papers, only to find they're completely blank. After the initial confusion has subsided, one frustrated candidate writes 'I believe you should hire me because,' and is promptly ejected for spoiling. The remaining candidates soon figure out they're permitted to talk to each other, and they agree to cooperate in order to figure out the question then they can compete to answer it.

At first they suspect the question may be hidden in their papers like a security marker in a credit card, and they figure out ways to change their environment to expose the hidden words. But light, liquids and other plans all come to naught. Soon enough, the candidates begin to uncover each other's background, prejudices and hidden agendas. Tensions rise as the clock steadily descends towards zero, and each candidate must decide how far they are willing to go to secure the ultimate job
=========================================================================================================================
GENERAL MOVIE SPECS:

GENERAL:
Complete name : Exam
Format : MPEG-PS
File size : 1.09 GB
Duration : 97 Minutes
Overall bit rate : 1 596 Kbps

VIDEO:
ID : 224 (0xE0)
Format : MPEG Video
Format version : Version 2
Format profile : [email protected]
Format settings, BVOP : Yes
Format settings, Matrix : Default
Duration : 97 Minutes
Bit rate mode : Variable
Bit rate : 1 372 Kbps
Nominal bit rate : 9 608 Kbps
Width : 720 pixels
Height : 576 pixels
Display aspect ratio : 16:9
Frame rate : 25.000 fps
Standard : PAL
Color space : YUV
Chroma subsampling : 4:2:0
Bit depth : 8 bits
Scan type : Progressive
Bits/(Pixel*Frame) : 0.132
Stream size : 880 MiB (86%)

AUDIO:
ID : 128 (0x80)
Format : AC-3
Format/Info : Audio Coding 3
Mode extension : CM (complete main)
Duration : 97 Minutes
Bit rate mode : Constant
Bit rate : 192 Kbps
Channel(s) : 2 channels
Channel positions : Front: L R
Sampling rate : 48.0 KHz
Stream size : 123 MiB (12%)
=========================================================================================================================

Related torrents

Torrent NameAddedSizeSeedLeechHealth
Verified torrent
1 Year+ - in Movies1.89 GB111
Verified torrent
1 Year+ - in Movies1.39 GB116
Verified torrent
1 Year+ - in Movies1.36 GB113
Verified torrent
1 Year+ - in Movies1.67 GB00
Verified torrent
1 Year+ - in Movies1.77 GB10

Comments (0 Comments)




Please login or create a FREE account to post comments

Latest Searches

| hee hoo | Ghostbusters 2016 EXTENDED BRRip XViD AC3 ETRG avi | Big butt slut Jennifer White reamed balls deep by 4 huge cocks | mkv uhd video | Dyked 16 12 02 Selena Santana And Sophia Leone 1080p MP4 KTR | Teens Love Black Cocks Elektra Rose | Lynda 2016 | The Untouchables 1987 720p BluRay x264 DTS AC3 | LinuxCBT EL 6 Edition | holly cafe |