Quick Browse
Movies
TV shows
Music
Games
Applications
Anime
Other
Facebook
Friends
Torrent Download
Movie4u
1337x.to
Torrent Downloads

Extratorrent com A Perfect Getaway (2009) TS-Xvid-ExtraScene RG


    Seeders : 0      Leechers : 0


Trackers List

Tracker NameLast CheckStatusSeedersLeechers




Torrent File Content (1 file)


A Perfect Getaway 2009 Cam TS-ExtraScene RG
     A Perfect Getaway 2009 Cam Ts-Xvid-ExtraScene RG.avi -
694.97 MB



Description



========== General ==========

Complete name : A Perfect Getaway 2009 Cam Ts-Xvid-ExtraScene RG.avi
Format : AVI
Format/Info : Audio Video Interleave
File size : 695 MiB
Duration : 1h 32mn
Overall bit rate : 1 049 Kbps


========== Video ==========

Format : MPEG-4 Visual
Format settings, Matrix : Default (H.263)
Codec ID : XVID
Duration : 1h 32mn
Bit rate : 909 Kbps
Width : 672 pixels
Height : 272 pixels
Display aspect ratio : 2.471
Frame rate : 23.976 fps
Resolution : 24 bits
Colorimetry : 4:2:0
Scan type : Progressive
Bits/(Pixel*Frame) : 0.207
Stream size : 602 MiB (87%)


========== Audio ==========

Format : MPEG Audio
Format version : Version 1
Format profile : Layer 3
Codec ID/Hint : MP3
Duration : 1h 32mn
Bit rate mode : Constant
Bit rate : 128 Kbps
Channel(s) : 2 channels
Sampling rate : 48.0 KHz
Resolution : 16 bits
Stream size : 84.8 MiB (12%)
Interleave, duration : 24 ms (0.58 video frame)



Release Date : 7 August 2009 (USA) more
Genre : Drama | Horror | Mystery | Thriller more
Tagline : Let The Games Begin.
IMDB Rating : 6.7/10

Plot:
For their honeymoon, newlyweds Cliff and Cydney head to the tropical islands of Hawaii. While journeying through the paradisaical countryside the couple encounters Kale and Cleo, two disgruntled hitchhikers and Nick and Gina, two wild but well-meaning spirits who help guide them through the lush jungles. The picturesque waterfalls and scenic mountainsides quickly give way to terror when Cliff and Cydney learn of a grisly murder that occurred nearby and realize that they're being followed by chance acquaintances that suspiciously fit the description of the killers

More info and releases in www.ExtraTorrent.com

Related torrents

Torrent NameAddedSizeSeedLeechHealth
1 Year+ - in Movies775.97 MB01
1 Year+ - in Movies706.56 MB00
1 Year+ - in Movies14.37 KB93
1 Year+ - in Movies706.47 MB124
1 Year+ - in Movies699.23 MB155

Comments (0 Comments)




Please login or create a FREE account to post comments

Latest Searches

| put in you mouth | Mario Salieri Faust Im Sog des Seelen Fangers 2002 DVDRiP PPRG | All we know is falling paramore | special blond | Stronger with Each Tear 2009 | miguel cotto vs margarito 2 | hd lust com | MP3 ADRIAN MARCEL | s stereo heart | Jojo Sworld |