Quick Browse
Movies
TV shows
Music
Games
Applications
Anime
Other

Advertising

Friends
Torrents.me
Torrent Download
Free Movies
1337x
RARBG
Torrent Downloads

Extratorrent com Explicit Ills (2008) DvdRip-Xvid-ExtraScene RG


    Seeders : 0      Leechers : 0

Hash :0CEA562AB10F68EFAB8E677088EB4D3BD56476F8
Added :1 Year+ in Movies
Size :637.13 MB
Stream :Watch Online Full Movie @ Movie4u
Share :








Warning! Do not Download Torrents Without a VPN!
Your IP Address is .   And Location is
Your Internet Provider and Government can track your torrent Activity!  Hide your IP ADDRESS with a VPN!
We Strongly Recommend Using SpyOFF Torrent VPN to Anonymize your Torrenting. It's FREE for 15 Days!

Note :

Please Update (Trackers Info) Before Downloading Torrents to See Updated Seeders And Leechers for Batter Download Speed.

Trackers List

Tracker NameLast CheckStatusSeedersLeechers




Torrent File Content (1 file)


Explicit Ills 2008 DvdRip ExtraScene RG
     Explicit Ills 2008 DvdRip ExtraScene RG.avi -
637.13 MB



Description



========== General ===========

Complete name : Explicit Ills 2008 DvdRip ExtraScene RG.avi
Format : AVI
Format/Info : Audio Video Interleave
File size : 637 MiB
Duration : 1h 22mn
Overall bit rate : 1 076 Kbps


========== Video ==========

Format : MPEG-4 Visual
Format settings, Matrix : Default (H.263)
Codec ID : XVID
Codec ID/Hint : XviD
Duration : 1h 22mn
Bit rate : 935 Kbps
Width : 672 pixels
Height : 272 pixels
Display aspect ratio : 2.471
Frame rate : 23.976 fps
Resolution : 24 bits
Colorimetry : 4:2:0
Scan type : Progressive
Bits/(Pixel*Frame) : 0.213
Stream size : 554 MiB (87%)


========== Audio ==========

Format : MPEG Audio
Format version : Version 1
Format profile : Layer 3
Codec ID : 55
Codec ID/Hint : MP3
Duration : 1h 22mn
Bit rate mode : Constant
Bit rate : 128 Kbps
Channel(s) : 2 channels
Sampling rate : 48.0 KHz
Resolution : 16 bits
Stream size : 75.8 MiB (12%)
Alignment : Aligned on interleaves
Interleave, duration : 24 ms (0.58 video frame)
Interleave, preload duration : 509 ms




Release Date : 6 March 2009 (USA)
Genre : Drama
Tagline : One voice will change everything.


Set in the same Philadelphia streets where he himself was raised, Webbers script introduces a wide range of characters and follows them over the course of one eventful summer: Michelle (Frankie Shaw) and Jacob (Lou Taylor Pucci) are aspiring artists who fall victim to the temptations of drug abuse; Jill (Naomie Harris) and Kaleef (Tariq Trotter) are the spiritually healthy but financially tenuous parents of Heslin (Ross K. Kim-McManus); the asthmatic Babo (Francisco Burgos) lives under the watchful eye of his mother (Rosario Dawson); young teenager Demetri (Martin Cepeda) must tone down his macho act to score the girl of his dreams


Rosario Dawson ... Babo's Mom
Francisco Burgos ... Babo
Martin Cepeda ... Demitri
Rebecca Comerford ... Kelly
Jermaine Crawford ... Tony
Namaiya Cunningham ... Baby on bus
Paul Dano ... Rocco
Ruth DeSantis ... Protester
Tim Dowlin ... Chris
Destini Edwards ... The Girl
Joe Hansard ... Bloody Towel Man
Naomie Harris ... Jill
Zoe Lister Jones ... Jen
Ross K. Kim-McManus ... Heslin
Jacob Lavin ... Indy Rock Guy
Anna Martemucci ... Sarah
Shoha Parekh ... Aisha
Peter Patrikios ... Thug
Lou Taylor Pucci ... Jacob
Ben Rekhi ... Gulab
Ronald Robertson ... Thrift Store Clerk
Rocco Rosanio ... Will
J. Santiago ... Bodega Clerk
Frankie Shaw ... Michelle
Noah Simmons ... Little boy
Eugene Smith ... Customer
Rukiya Thomas ... Maria
Tariq Trotter ... Kaleef
Brian Anthony Wilson ... Demetri's Dad


===.:: Shoutz ::.===
MaddSkillz | xxxOBSCENExxx | NaTaS | SouLesS | Noir | BADASS | W1ck3d1nt3ntz | Titan | KooKoo | ET | 1337x


===.:: Releaser Notes ::.===
We are currently accepting any retail DVD-R or any source such as R5 or Screeners..
[email protected]


More info and releases in www.ExtraTorrent.com

Related torrents

Torrent NameAddedSizeSeedLeechHealth
1 Year+ - in Movies700.61 MB149
1 Year+ - in Movies700.52 MB00
1 Year+ - in Movies698.81 MB31
1 Year+ - in Movies671.51 MB00
1 Year+ - in Movies896.07 MB13

Note :

Feel free to post any comments about this torrent, including links to Subtitle, samples, screenshots, or any other relevant information. Please Dont Download anything from Comments, And Dont Post Links to Streaming Sites like Fmovies, Xmovies8, 123Movies, GoMovies, CMovieshd, Solarmovie, Watchfree, Putlockers, GoStream, m4ufree etc.

Comments (0 Comments)




Please login or create a FREE account to post comments

Latest Searches

| symphony no 9 a minor | loves my mom | Iconic Deep Deephouse Rhythms 2017 | mozart s requiem | pleasure amateur | mule live help | Chinese zodiac Jackie chan | Deep Anal Drilling 4 2012 | Cumpilation Teen | TeenBFF Ariana |