Quick Browse
Movies
TV shows
Music
Games
Applications
Anime
Other
Facebook
Advertising

Friends
Torrent Download
Movie4u
1337x.to
Torrent Downloads




Extratorrent com G I Joe Rise Of The Cobra (2009) DvdRip-Xvid-ExtraScene RG


    Seeders : 0      Leechers : 0

Trackers List

Tracker NameLast CheckStatusSeedersLeechers




Torrent File Content (1 file)


G.I Joe 2009 DvdRip ExtraScene RG
     G.I Joe 2009 DvdRip ExtraScene RG.avi -
793.56 MB



Description



========== General ==========

Complete name : G.I Joe 2009 DvdRip ExtraScene RG.avi
Format : AVI
Format/Info : Audio Video Interleave
File size : 794 MiB
Duration : 1h 51mn
Overall bit rate : 996 Kbps


========== Video ==========

Format : MPEG-4 Visual
Format settings, Matrix : Default (H.263)
Codec ID : XVID
Codec ID/Hint : XviD
Duration : 1h 51mn
Bit rate : 855 Kbps
Width : 624 pixels
Height : 256 pixels
Display aspect ratio : 2.40:1
Frame rate : 23.976 fps
Resolution : 24 bits
Colorimetry : 4:2:0
Scan type : Progressive
Bits/(Pixel*Frame) : 0.223
Stream size : 681 MiB (86%)


========== Audio ==========

Format : MPEG Audio
Format version : Version 1
Format profile : Layer 3
Codec ID : 55
Codec ID/Hint : MP3
Duration : 1h 51mn
Bit rate mode : Constant
Bit rate : 128 Kbps
Channel(s) : 2 channels
Sampling rate : 48.0 KHz
Resolution : 16 bits
Video delay : 1s 104ms
Stream size : 102 MiB (13%)
Alignment : Split accross interleaves
Interleave, duration : 24 ms (0.58 video frame)
Interleave, preload duration : 1527 ms


========== IMDB RATING ==========

Release Date : 7 August 2009 (USA)
Genre : Action | Adventure | Sci-Fi | Thriller
Tagline : When All Else Fails, They Don't
Rating : 6.0/10
http://www.imdb.com/title/tt1046173/


========== PLOT ==========

The film opens in France, in 1641. The Scotsman Klan McCullen has been accused of selling weaponry to both the Scots and French. Rather than being executed for treason, the jury brands his face with a white-hot mask in order to humiliate him. In the near future, weapons expert James McCullen (Christopher Eccleston) has created a nanotechnology-based weapon capable of destroying an entire city. His company MARS sells four warheads to NATO, and the U.S. Army is tasked with delivering the warheads. Duke (Channing Tatum) and Ripcord (Marlon Wayans) are delivering the warheads when they are ambushed by the Baroness (Sienna Miller), who Duke recognized to be his ex-fiancee Ana Lewis. Duke and Ripcord are rescued by Scarlett (Rachel Nichols), Snake Eyes (Ray Park) and Heavy Duty (Adewale Akinnuoye-Agbaje).


========== CAST ==========

Adewale Akinnuoye-Agbaje ... Heavy Duty
Christopher Eccleston ... James McCullen / Destro
Grégory Fitoussi ... Baron de Cobray
Joseph Gordon-Levitt ... The Doctor / Rex Lewis
Leo Howard ... Young Snake Eyes
Karolina Kurkova ... Courtney A. Kreiger / Cover Girl
Byung-hun Lee ... Storm Shadow
Sienna Miller ... Anastasia 'Ana' DeCobray / Baroness
David Murray ... James McCullen - 1641
Rachel Nichols ... Shana 'Scarlett' O'Hara
Kevin J. O'Connor ... Dr. Mindbender
Gerald Okamura ... Hard Master
Ray Park ... Snake Eyes
Jonathan Pryce ... U.S. President
Dennis Quaid ... General Hawk
Brandon Soo Hoo ... Young Storm Shadow
Saïd Taghmaoui ... Breaker
Channing Tatum ... Duke
Arnold Vosloo ... Zartan
Marlon Wayans ... Ripcord


========== SHOUTZ ==========

MaddSkillz | xxxOBSCENExxx | NaTaS | SouLesS | Reno.99999 | Noir | BADASS | W1ck3d1nt3ntz | Titan | KooKoo | ET | 1337x | Wrath


========== RELEASER NOTES ==========

We are currently accepting any retail DVD-R or any source such as ( R5,Screeners and Even Cam's or Direct Audio ) for any Source....You can contact us @
[email protected]


More info and releases in www.ExtraTorrent.com

Related torrents

Torrent NameAddedSizeSeedLeechHealth
1 Year+ - in Movies690.88 MB00
1 Year+ - in Movies6.16 GB04
1 Year+ - in Movies17.16 KB15
1 Year+ - in Movies447.52 MB02
1 Year+ - in Movies1.69 GB00

Comments (0 Comments)




Please login or create a FREE account to post comments

Latest Searches

| gaglia | BLACKED Jynx Maze I Became My Bosss Mistress 06 12 2016 1k mp4 | quiz game unity | chillout lounge 50 | album of nothing | IKnowThatGirl 2014 04 21 Shae Summers | moneybagg yo s | 40s christmas music | twilight rob | Suicide Squad Extended Cut |