Quick Browse
Movies
TV shows
Music
Games
Applications
Anime
Other
Facebook
Advertising

Friends
Torrent Download
Movie4u
1337x.to
Torrent Downloads




Extratorrent com Land Of The Lost 2009 INTERNAL DvDRiP XviD-ExtraScene RG


    Seeders : 3      Leechers : 0

Trackers List

Tracker NameLast CheckStatusSeedersLeechers




Torrent File Content (2 files)


Land Of The Lost 2009 INTERNAL DvDRiP XviD-ExtraScene RG
     0b3c3n3nf0.nfo -
6.27 KB

     Land Of The Lost 2009 INTERNAL DvDRiP XviD-ExtraScene RG.avi -
700.53 MB



Description



--------------------------------------------------------------------------------
Land Of The Lost 2009 INTERNAL DvDRiP XviD-ExtraScene RG
--------------------------------------------------------------------------------
Land Of The Lost 2009 INTERNAL DvDRiP XviD-ExtraScene RG
Encoder: xxxOBSCENExxx
Size: Single CD Release 701mb (High Quality 0b5c3n3 Custom)
Source: Land.Of.The.Lost.DVDR-REPLICA
Audio: 2ch mp3 @ 128kb/s abr 48.0KHz
Audio Stream Language: English
Subtitles: N/A
Video: XviD @ 23.976 fps
Frame Width: 624
Frame Height: 336
AR: 1.857


Format : AVI
Format/Info : Audio Video Interleave
File size : 701 MiB
Duration : 1h 41mn
Overall bit rate : 963 Kbps
Writing application : VirtualDubMod 1.5.10.2 (build 2540/release)
Writing library : VirtualDubMod build 2540/release

Video
ID : 0
Format : MPEG-4 Visual
Format profile : [email protected]
Format settings, BVOP : Yes
Format settings, QPel : No
Format settings, GMC : No warppoints
Format settings, Matrix : Default (H.263)
Muxing mode : Packed bitstream
Codec ID : XVID
Codec ID/Hint : XviD
Duration : 1h 41mn
Bit rate : 819 Kbps
Width : 624 pixels
Height : 336 pixels
Display aspect ratio : 1.857
Frame rate : 23.976 fps
Resolution : 24 bits
Colorimetry : 4:2:0
Scan type : Progressive
Bits/(Pixel*Frame) : 0.163
Stream size : 596 MiB (85%)
Writing library : XviD 1.2.1 (UTC 2008-12-04)

Audio
ID : 1
Format : MPEG Audio
Format version : Version 1
Format profile : Layer 3
Codec ID : 55
Codec ID/Hint : MP3
Duration : 1h 41mn
Bit rate mode : Variable
Bit rate : 132 Kbps
Nominal bit rate : 128 Kbps
Channel(s) : 2 channels
Sampling rate : 48.0 KHz
Resolution : 16 bits
Stream size : 95.7 MiB (14%)
Alignment : Aligned on interleaves
Interleave, duration : 24 ms (0.58 video frame)
Interleave, preload duration : 478 ms
Writing library : LAME3.98r
Encoding settings : -m j -V 4 -q 3 -lowpass 17 --abr 128


Cast:
Will Ferrell ... Dr. Rick Marshall

Anna Friel ... Holly Cantrell

Danny McBride ... Will Stanton

Jorma Taccone ... Cha-Ka

John Boylan ... Enik

Matt Lauer ... Himself

Bobb'e J. Thompson... Tar Pits Kid #1

Sierra McCormick... Tar Pits Kid #2

Shannon Lemke ... Tar Pits Kid #3

Stevie Wash Jr. ... Tar Pits Kid #4 (as Steven Wash Jr.)

Brian Huskey ... Teacher

Kevin Buitrago ... Teenager #1

Noah Crawford ... Teenager #2

Jon Kent Ethridge... Teenager #3

Logan Manus ... Teenager #4

Plot :
On his latest expedition, Dr. Rick Marshall is sucked into a space-time vortex alongside his research assistant and a redneck survivalist. In this alternate universe, the trio make friends with a primate named Chaka, their only ally in a world full of dinosaurs and other fantastic creatures.

--------------------------------------------------------------------------------

========== SHOUTZ ==========

xxxOBSCENExxx | MaddSkillz | NaTaS | SouLesS | Noir | BADASS | W1ck3d1nt3ntz | Titan | KooKoo | ET | 1337x | Release Lounge | Wrath | admin

Ok guys I'm back in full force encoding high quality single cd xvids. Felt the need to get back into the game, and kick it with ExtraScene RG once again, especially since I see the trash that's being put out there by some of these other one click app groups. Filtered w/ Smart Deblocker, Smart Brightness, a Little Lanczos Enhancement, & My Magic Touch
Propz to all those who share.



More info and releases in www.ExtraTorrent.com

Related torrents

Torrent NameAddedSizeSeedLeechHealth
1 Year+ - in Movies710.96 MB99
1 Year+ - in Movies708.69 MB19
1 Year+ - in Movies715.55 MB1166
1 Year+ - in Movies1.4 GB14
1 Year+ - in Movies703.85 MB021

Comments (0 Comments)




Please login or create a FREE account to post comments

Latest Searches

| what difference a day | Gucci Mane trap house 3 mixtape | Cum Swallowing College Sluts 2 | the victorias 2016 | samantha bentley plaything | Slash 2016 HDRip XviD AC3 EVO | getting down garage | t jeezy | love and hip hop season 7 episode 3 | farcry 4 r |