Quick Browse
Movies
TV shows
Music
Games
Applications
Anime
Other
Facebook
Advertising

Friends
Torrent Download
Movie4u
1337x.to
Torrent Downloads




Extratorrent com Star Trek (2009) DvdRip-Xvid-ExtraScene RG


    Seeders : 0      Leechers : 0
Hash :C8369912CF285E1F650EDF7C519D579B233892DC
Added :1 Year+ in Movies
Size :671.69 MB
Stream :WATCH ONLINE @ Movie4u


Extratorrent com Star Trek (2009) DvdRip-Xvid-ExtraScene RG
Free and Fast Download with Usenet 300GB+ free







Trackers List

Tracker NameLast CheckStatusSeedersLeechers




Torrent File Content (1 file)


Star Trek 2009 DvdRip ExtraScene RG
     Star Trek 2009 DvdRip ExtraScene RG.avi -
671.69 MB



Description



========== General ==========

Complete name : Star Trek 2009 DvdRip ExtraScene RG.avi
Format : AVI
Format/Info : Audio Video Interleave
File size : 672 MiB
Duration : 1h 58mn
Overall bit rate : 792 Kbps


========== Video ==========

Format : MPEG-4 Visual
Format settings, Matrix : Default (H.263)
Codec ID : XVID
Codec ID/Hint : XviD
Duration : 1h 58mn
Bit rate : 652 Kbps
Width : 704 pixels
Height : 288 pixels
Display aspect ratio : 2.40:1
Frame rate : 23.976 fps
Resolution : 24 bits
Colorimetry : 4:2:0
Scan type : Progressive
Bits/(Pixel*Frame) : 0.134
Stream size : 552 MiB (82%)


========== Audio ==========

Format : MPEG Audio
Format version : Version 1
Format profile : Layer 3
Codec ID : 55
Codec ID/Hint : MP3
Duration : 1h 58mn
Bit rate mode : Constant
Bit rate : 128 Kbps
Channel(s) : 2 channels
Sampling rate : 48.0 KHz
Resolution : 16 bits
Stream size : 109 MiB (16%)
Alignment : Aligned on interleaves
Interleave, duration : 24 ms (0.58 video frame)
Interleave, preload duration : 509 ms


========== IMDB Info ==========


Release Date : 8 May 2009 (USA)
Genre : Action | Adventure | Sci-Fi
Tagline : The future begins.


On the day of James Kirk's birth, his father dies on his ship in a last stand against a mysterious alien vessel. He was looking for Ambassador Spock, who is a child on Vulcan at that time, disdained by his neighbors for his half-human nature. Twenty years later, Kirk has grown into a young troublemaker inspired by Capt. Christopher Pike to fulfill his potential in Starfleet even as he annoys his instructors like young Lt. Spock


Chris Pine ... James T. Kirk
Zachary Quinto ... Spock
Leonard Nimoy ... Spock Prime
Eric Bana ... Nero
Bruce Greenwood ... Capt. Christopher Pike
Karl Urban ... Bones
Zoe Saldana ... Nyota Uhura (as Zo? Saldana)
Simon Pegg ... Montgomery Scott
John Cho ... Lt. Hikaru Sulu
Anton Yelchin ... Pavel Chekov
Ben Cross ... Sarek
Winona Ryder ... Amanda Grayson
Chris Hemsworth ... George Kirk
Jennifer Morrison ... Winona Kirk
Rachel Nichols ... Gaila


===.:: Shoutz ::.===
MaddSkillz | xxxOBSCENExxx | NaTaS | SouLesS | Noir | BADASS | W1ck3d1nt3ntz | Titan | KooKoo | ET | 1337x | DigiXtc


===.:: Releaser Notes ::.===
We are currently accepting any retail DVD-R or any source such as R5 or Screeners..
[email protected]

screenshots:
http://lookpic.com/i/262/uZknewey.png
http://lookpic.com/i/881/nLppTWq3.png
http://lookpic.com/i/979/YN6vdT7i.png
More info and releases in www.ExtraTorrent.com

Related torrents

Torrent NameAddedSizeSeedLeechHealth
1 Year+ - in Movies700.43 MB00
1 Year+ - in Movies693.42 MB24
1 Year+ - in Movies699.94 MB00
1 Year+ - in Movies896.07 MB13
1 Year+ - in Movies700.61 MB149

Comments (0 Comments)




Please login or create a FREE account to post comments

Latest Searches

| rus dts | animate mac | direction home dylan | tarra white double dose of pleasure hd 1080p | Le j attendant | kamasutra sherlyn chopra Rupesh | commview for wifi 6 3 crack windows 7 | The Tudors The Movies | mase a | TNA PPVs |