Quick Browse
Movies
TV shows
Music
Games
Applications
Anime
Other
Facebook
Advertising

Friends
Torrent Download
Movie4u
1337x.to
Torrent Downloads




Verified torrent Fabolous - Lights Out [KingPinVideos]


    Seeders : 1      Leechers : 0
Hash :FD7D8B3A7CC0AD632D8A14476B441F3A6A3F3C23
Added :1 Year+ by KingPinVerified torrent uploader in Music - Music Videos
Size :72.94 MB
Stream :WATCH ONLINE @ Movie4u


Fabolous - Lights Out [KingPinVideos]
Free and Fast Download with Usenet 300GB+ free







Trackers List

Tracker NameLast CheckStatusSeedersLeechers




Torrent File Content (5 files)


Fabolous - Lights Out [KingPinVideos]
     Fabolous - Lights Out [KingPinVideos].mpg -
72.93 MB

     Fabolous - Lights Out [KingPinVideos].nfo -
1.87 KB

     Fabolous - Lights Out [KingPinVideos].txt -
1.63 KB

     Torrent downloaded from Demonoid.com.txt -
47 bytes

     Torrent Downloaded from Limetorrents.com.txt -
46 bytes



Description



http://a.imageshack.us/img830/1192/fabolouslights.png


http://a.imageshack.us/img709/5757/fabolouslights2.png


[code]General
Complete name : Fabolous - Lights Out [KingPinVideos].mpg
Format : MPEG-PS
File size : 72.9 MiB
Duration : 3mn 37s
Overall bit rate : 2 813 Kbps
Writing library : encoded by TMPGEnc 4.0 XPress Version. 4.7.4.299

Video
ID : 224 (0xE0)
Format : MPEG Video
Format version : Version 1
Format settings, BVOP : Yes
Format settings, Matrix : Default
Duration : 3mn 37s
Bit rate mode : Variable
Bit rate : 2 573 Kbps
Nominal bit rate : 2 700 Kbps
Width : 384 pixels
Height : 208 pixels
Display aspect ratio : 16:9
Frame rate : 29.970 fps
Resolution : 8 bits
Scan type : Progressive
Bits/(Pixel*Frame) : 1.075
Stream size : 66.7 MiB (91%)
Writing library : TMPGEnc XPress 4.7.4.299

Audio
ID : 192 (0xC0)
Format : MPEG Audio
Format version : Version 1
Format profile : Layer 2
Duration : 3mn 37s
Bit rate mode : Constant
Bit rate : 128 Kbps
Channel(s) : 2 channels
Sampling rate : 48.0 KHz
Stream size : 3.32 MiB (5%)[/code]

Related torrents

Torrent NameAddedSizeSeedLeechHealth
1 Year+ - in Other1.11 GB00
1 Year+ - in Music3.45 MB20
26 days ago - in Movies1.23 GB00
27 days ago - in Movies5.27 GB00
30 days ago - in Movies4.38 GB00

Comments (0 Comments)




Please login or create a FREE account to post comments

Latest Searches

| spend some time T i | spend some time To i | rainbow monsters rock | nadeji | brock lesnar full match | dvd rip nl 2016 | descendants wicked world s02e06 | virtual amy | mark morrison ft | Scientific American August 2014 USA |