Quick Browse
Movies
TV shows
Music
Games
Applications
Anime
Other
Facebook
Advertising

Friends
Torrent Download
Movie4u
1337x.to
Torrent Downloads




Verified torrent Fakta Ladh Mhana (2011) Marathi Xvid MP3 1 CD DVDRipMDG @Mastitorrents


    Seeders : 1      Leechers : 3

Trackers List

Tracker NameLast CheckStatusSeedersLeechers




Torrent File Content (23 files)


Fakta Ladh Mhana (2011] Xvid MP3 1 CD DVDRip MDG (www.mastitorrents.com)
     www.mastitorrents.com.txt -
538 bytes

     -=MTR=- [Masti Torrents Releasers].txt -
169 bytes

     Catch Us On Facebook.txt -
0 bytes

     Fakta Ladh Mhana (2011] Xvid MP3 1 CD DVDRip MDG (www.mastitorrents.com).avi -
692.04 MB

     Fakta Ladh Mhana (2011] Sample.avi -
6.85 MB

    Screens
          F08.png -
127.23 KB

          F18.png -
159.27 KB

          F16.png -
162.66 KB

          F05.png -
170.47 KB

          F14.png -
162.51 KB

          F13.png -
129.81 KB

          F03.png -
161.18 KB

          F15.png -
82.4 KB

          F04.png -
191.29 KB

          F07.png -
161.22 KB

          F10.png -
92.17 KB

          F01.png -
126.4 KB

          F02.png -
139.58 KB

          F11.png -
162.68 KB

          F17.png -
128.18 KB

          F09.png -
133.52 KB

          F12.png -
175.3 KB

          F06.png -
136.72 KB



Description



[color=red][font=Georgia]

mastitorrents.com

http://mastitorrents.com/forums/index.php

General
Complete name : Fakta Ladh Mhana [2011] - Xvid - MP3 - DVDRiP (www.mastitorrents.com)
Format : AVI
Format/Info : Audio Video Interleave
File size : 692 MiB
Duration : 2h 24mn
Overall bit rate : 668 Kbps

Video
ID : 0
Format : MPEG-4 Visual
Format profile : Advanced [email protected]
Format settings, BVOP : 1
Format settings, QPel : No
Format settings, GMC : No warppoints
Format settings, Matrix : Default (H.263)
Codec ID : XVID
Codec ID/Hint : XviD
Duration : 2h 24mn
Bit rate : 598 Kbps
Width : 608 pixels
Height : 256 pixels
Display aspect ratio : 2.40:1
Frame rate : 23.976 fps
Color space : YUV
Chroma subsampling : 4:2:0
Bit depth : 8 bits
Scan type : Progressive
Compression mode : Lossy
Bits/(Pixel*Frame) : 0.160
Stream size : 620 MiB (90%)
Writing library : XviD 1.2.1 (UTC 2008-12-04)

Audio
ID : 1
Format : MPEG Audio
Format version : Version 2
Format profile : Layer 3
Mode : Joint stereo
Mode extension : MS Stereo
Codec ID : 55
Codec ID/Hint : MP3
Duration : 2h 24mn
Bit rate mode : Constant
Bit rate : 64.0 Kbps
Channel(s) : 2 channels
Sampling rate : 24.0 KHz
Compression mode : Lossy
Stream size : 66.3 MiB (10%)
Alignment : Aligned on interleaves
Interleave, duration : 167 ms (4.00 video frames)
Interleave, preload duration : 216 ms
Title : Fakta Ladh Mhana T81 2_0ch 224Kbps DELAY 0ms
Writing library : LAME3.98r
Encoding settings : -m j -V 4 -q 2 -lowpass 11 -b 64
[/font][/color]

http://www.shotpix.com/images/64036048918445653815.png

http://www.shotpix.com/images/82066629336611329804.png

http://www.shotpix.com/images/69145875591593209862.png

http://www.shotpix.com/images/49907572574463037165.png

http://www.shotpix.com/images/91701874054802147380.png

http://www.shotpix.com/images/41294491050985105401.png

http://www.shotpix.com/images/59571510921832040951.png

http://www.shotpix.com/images/81949932815091633211.png

Related torrents

Torrent NameAddedSizeSeedLeechHealth
1 Year+ - in Movies701.43 MB17
8 months ago - in Other698.35 MB00
Verified torrent
1 Year+ - in Movies699.66 MB118605
1 Year+ - in Movies733.47 MB10
1 Year+ - in Music110.7 MB60

Comments (0 Comments)




Please login or create a FREE account to post comments

Latest Searches

| B b King Anthology | tiffant mynx | Heavyocity Gravity KONTAKT | aejo | Ae Dil Hai Mushkil 2016 Hindi DVDRip x264 | Soul Hits Of the 70s Didnt It Blow Your Mind Vol 13 | 1080p holed 16 12 | Frank Ocean 2016 Blonde | daughterswap Jade Jantzen Molly Mae | brutal legal |