Quick Browse
Movies
TV shows
Music
Games
Applications
Anime
Other
Facebook
Advertising

Friends
Torrent Download
Movie4u
1337x.to
Torrent Downloads




Fame 2009 BDRip NORARS


    Seeders : 70      Leechers : 60
Hash :856AACFA2D25D78F8D8780E1A1862AD656AB9242
Added :1 Year+ in Movies
Size :1.38 GB
Stream :WATCH ONLINE @ Movie4u


Fame 2009 BDRip NORARS
Free and Fast Download with Usenet 300GB+ free







Trackers List

Tracker NameLast CheckStatusSeedersLeechers




Torrent File Content (2 files)


Fame 2009 BDRip [www.IWANNADOWNLOAD.com]
     Fame 2009 BDRip www.IWANNADOWNLOAD.com.avi -
1.36 GB

     fame-sample.avi -
14.58 MB



Description



Original File Name:
Fame.2009.EXTENDED.DANCE.EDiTiON.BDRip.XviD-NeDiVx
Then unrar'd and joined for convenience.

Video Sample:
http://www.movshare.net/video/7vau2idwuuc1k

http://www.imdb.com/title/tt1016075/
http://img6.imageshack.us/img6/5443/famer1artworkpic2high.jpg

http://lookpic.com/i/34/D6CuguCu.png

http://lookpic.com/i/901/cuh409Qo.png

http://lookpic.com/i/32/zSKFbaJM.png


Format : AVI
Format/Info : Audio Video Interleave
File size : 1.36 GiB
Duration : 2h 2mn
Overall bit rate : 1 599 Kbps
Writing application : Nandub v1.0rc2
Writing library : Boilsoft AVI tool build 1/release

Video
ID : 0
Format : MPEG-4 Visual
Format profile : [email protected]
Format settings, BVOP : Yes
Format settings, QPel : No
Format settings, GMC : No warppoints
Format settings, Matrix : Default (H.263)
Codec ID : XVID
Codec ID/Hint : XviD
Duration : 2h 2mn
Bit rate : 1 141 Kbps
Width : 640 pixels
Height : 272 pixels
Display aspect ratio : 2.35:1
Frame rate : 23.976 fps
Resolution : 24 bits
Colorimetry : 4:2:0
Scan type : Progressive
Bits/(Pixel*Frame) : 0.273
Stream size : 998 MiB (71%)
Writing library : XviD 0039 build=2005.09.16 (UTC 2005-09-16)

Audio
ID : 1
Format : AC-3
Format/Info : Audio Coding 3
Codec ID : 2000
Duration : 2h 2mn
Bit rate mode : Constant
Bit rate : 448 Kbps
Channel(s) : 6 channels
Channel positions : Front: L C R, Surround: L R, LFE
Sampling rate : 48.0 KHz
Stream size : 392 MiB (28%)
Alignment : Split accross interleaves
Interleave, duration : 42 ms (1.00 video frame)
Interleave, preload duration : 500 ms

Related torrents

Torrent NameAddedSizeSeedLeechHealth
1 Year+ - in Movies1.43 GB6754
1 Year+ - in Movies1.36 GB00
1 Year+ - in Movies1.36 GB199149
1 Year+ - in Movies1.36 GB84
1 Year+ - in Movies1.36 GB12245

Comments (0 Comments)




Please login or create a FREE account to post comments

Latest Searches

| Temple Of The Dog Temple Of The Dog Deluxe 2016 | match of the day 3 12 2016 | Katie Cummings 2016 | Headmaster Teaches His School Girls Rough Anal Sex Robert Hill WEB DL NEW 2016 | Justice League Legion of Doom 1080p | goldkinder we butter the bread with butter | ward zz | No Mans Land Edition 3 | Finger Death Punch | sex while pregnant |