Quick Browse
Movies
TV shows
Music
Games
Applications
Anime
Other
Facebook
Advertising

Friends
Torrent Download
Movie4u
1337x.to
Torrent Downloads




Fast.And.Furious.5.2011.iTALiAN.LD.TSRip.V2.XviD-[TrTd_CREW]


    Seeders : 260      Leechers : 6

Trackers List

Tracker NameLast CheckStatusSeedersLeechers




Torrent File Content (3 files)


Fast.And.Furious.5.2011.iTALiAN.LD.TSRip.V2.XviD-[TrTd_CREW]
     Fast.And.Furious.5.2011.iTALiAN.LD.TSRip.V2.XviD-[TrTd_CREW].avi -
1.14 GB

     presentazione.rtf -
30.64 KB

     presentazione.txt -
266 bytes



Description




http://www.torrented.org/public/phpbb3/images/presenta.png


http://img600.imageshack.us/img600/4338/newprojectpi.png


http://img820.imageshack.us/img820/2258/fastendthefurions5.png





http://www.torrented.org/public/phpbb3/images/info%20film.png



[color=red]USCITA CINEMA:[/color] 04/05/2011
[color=red]REGIA:[/color] Justin Lin
[color=red]SCENEGGIATURA:[/color] Chris Morgan
[color=red]ATTORI:[/color] Vin Diesel, Paul Walker, Jordana Brewster, Dwayne Johnson, Gal Gadot, Elsa Pataky, Sung Kang, Tyrese Gibson, Matt Schulze, Joaquim de Almeida, Michael Irby, Geoff Meed, Alimi Ballard


[color=red]FOTOGRAFIA:[/color] Stephen F. Windon
[color=red]MONTAGGIO:[/color] Kelly Matsumoto, Christian Wagner
[color=red]MUSICHE:[/color] Brian Tyler
[color=red]PRODUZIONE:[/color] Original Film
[color=red]DISTRIBUZIONE:[/color] Universal Pictures
[color=red]PAESE:[/color] USA 2011
[color=red]GENERE:[/color] Azione, Thriller
[color=red]DURATA:[/color] 130 Min
[color=red]FORMATO:[/color] Colore 2.35 : 1

General
Count : 259
Count of stream of this kind : 1
Kind of stream : General
Kind of stream : General
Stream identifier : 0
Count of video streams : 1
Count of audio streams : 1
Video_Format_List : MPEG-4 Visual
Video_Format_WithHint_List : MPEG-4 Visual (XviD)
Codecs Video : XviD
Audio_Format_List : AC-3
Audio_Format_WithHint_List : AC-3
Audio codecs : AC3
Complete name : Fast.And.Furious.5.2011.iTALiAN.LD.TSRip.V2.XviD-[TrTd_CREW]
\Fast.And.Furious.5.2011.iTALiAN.LD.TSRip.V2.XviD-[TrTd_CREW].avi
Folder name : Fast.And.Furious.5.2011.iTALiAN.LD.TSRip.V2.XviD-[TrTd_CREW]
File name : Fast.And.Furious.5.2011.iTALiAN.LD.TSRip.V2.XviD-[TrTd_CREW]
File extension : avi
Format : AVI
Format : AVI
Format/Info : Audio Video Interleave
Format/Extensions usually used : avi
Format profile : OpenDML
Interleaved : Yes
Codec : AVI
Codec : AVI
Codec/Info : Audio Video Interleave
Codec/Extensions usually used : avi
File size : 1224698458
File size : 1.14 GiB
File size : 1 GiB
File size : 1.1 GiB
File size : 1.14 GiB
File size : 1.141 GiB
Duration : 7011488
Duration : 1h 56mn
Duration : 1h 56mn 51s 488ms
Duration : 1h 56mn
Duration : 01:56:51.488
Overall bit rate : 1397362
Overall bit rate : 1 397 Kbps
Stream size : 11758392
Stream size : 11.2 MiB (1%)
Stream size : 11 MiB
Stream size : 11 MiB
Stream size : 11.2 MiB
Stream size : 11.21 MiB
Stream size : 11.2 MiB (1%)
Proportion of this stream : 0.00960
File creation date : UTC 2011-05-05 21:04:03.849
File creation date (local) : 2011-05-05 23:04:03.849
File last modification date : UTC 2011-05-05 22:25:57.335
File last modification date (loc : 2011-05-06 00:25:57.335
Writing application : Lavf52.103.0

Video
Count : 148
Count of stream of this kind : 1
Kind of stream : Video
Kind of stream : Video
Stream identifier : 0
ID : 0
ID : 0
Format : MPEG-4 Visual
Format profile : [email protected]
Format settings, BVOP : No
Format settings, BVOP : No
Format settings, QPel : No
Format settings, QPel : No
Format settings, GMC : 0
Format settings, GMC : No warppoints
Format settings, Matrix : Default (H.263)
Format settings, Matrix : Default (H.263)
Codec ID : XVID
Codec ID/Hint : XviD
Codec ID/Url : http://mediaarea.net/XVID
Codec : XVID
Codec : XviD
Codec/Family : MPEG-4V
Codec/Info : XviD project
Codec/Url : http://www.xvid.org/Downloads.15.0.html
Codec/CC : XVID
Codec profile : [email protected]
Codec settings, Packet bitstream : No
Codec settings, BVOP : No
Codec settings, QPel : No
Codec settings, GMC : 0
Codec settings, GMC : No warppoints
Codec settings, Matrix : Default (H.263)
Duration : 7011469
Duration : 1h 56mn
Duration : 1h 56mn 51s 469ms
Duration : 1h 56mn
Duration : 01:56:51.469
Bit rate : 999949
Bit rate : 1 000 Kbps
Width : 720
Width : 720 pixels
Height : 480
Height : 480 pixels
Pixel aspect ratio : 1.579
Display aspect ratio : 2.368
Display aspect ratio : 2.35:1
Frame rate : 23.976
Frame rate : 23.976 fps
Frame count : 168107
Standard : NTSC
Resolution : 24
Resolution : 24 bits
Colorimetry : 4:2:0
Scan type : Progressive
Scan type : Progressive
Interlacement : PPF
Interlacement : Progressive
Bits/(Pixel*Frame) : 0.121
Delay : 0
Stream size : 876388642
Stream size : 836 MiB (72%)
Stream size : 836 MiB
Stream size : 836 MiB
Stream size : 836 MiB
Stream size : 835.8 MiB
Stream size : 836 MiB (72%)
Proportion of this stream : 0.71560
Writing library : XviD0063
Writing library : XviD 63
Writing library/Name : XviD
Writing library/Version : 63

Audio
Count : 129
Count of stream of this kind : 1
Kind of stream : Audio
Kind of stream : Audio
Stream identifier : 0
ID : 1
ID : 1
Format : AC-3
Format/Info : Audio Coding 3
Codec ID : 2000
Codec : AC3
Codec : AC3
Codec/Family : AC3
Codec/Info : Dolby AC3
Codec/CC : 2000
Duration : 7011488
Duration : 1h 56mn
Duration : 1h 56mn 51s 488ms
Duration : 1h 56mn
Duration : 01:56:51.488
Bit rate mode : CBR
Bit rate mode : Constant
Bit rate : 384000
Bit rate : 384 Kbps
Channel(s) : 2
Channel(s) : 2 channels
Channel positions : L R
Channel positions : 2/0
Sampling rate : 48000
Sampling rate : 48.0 KHz
SamplingCount : 336551424
Resolution : 16
Resolution : 16 bits
Delay : 0
Video delay : 0
Video0 delay : 0
Stream size : 336551424
Stream size : 321 MiB (27%)
Stream size : 321 MiB
Stream size : 321 MiB
Stream size : 321 MiB
Stream size : 321.0 MiB
Stream size : 321 MiB (27%)
Proportion of this stream : 0.27480
Alignment : Aligned
Alignment : Aligned on interleaves
Interleave, duration : 0.77
Interleave, duration : 32
Interleave, duration : 32 ms (0.77 video frame)
Interleave, preload duration : 32
Interleave, preload duration : 32 ms



http://www.torrented.org/public/phpbb3/images/trama.png



Trama del film Fast & Furious 5:
In questo 5 capitolo della serie Fast and Furious, finiti a Rio De Janeiro dopo aver liberato Dom (Vin Diesel), Brian (Paul Walker) e Mia (Jordana Brewster) cercano di salvarsi affrontando due temibili nemici: un ricco affarista corrotto e soprattutto l'agente federale Luke Hobbs (Dwayne Johnson), che mette su una squadra all'unico scopo di mettere le mani sui fuggiaschi. Ma sarĂ  facile per quest'ultimo distinguere i buoni dai cattivi?

Related torrents

Torrent NameAddedSizeSeedLeechHealth
1 Year+ - in Movies716.77 MB00
1 Year+ - in Movies1.64 GB00
1 Year+ - in Movies2.43 GB00
1 Year+ - in Movies1.88 GB00
1 Comments
1 Year+ - in Movies1.03 GB23024

Comments (0 Comments)




Please login or create a FREE account to post comments

Latest Searches

| Twilight 720p dual audio hindi English | ty she don t | urban For you | Angelic Adria s Dirty Anal Defiling | Pack 8 Of 8 Rachel Starr | the heart of mind | Train Drive By | passion hd emily grey golden touch november 21 2014 rqj93067 mp4 | Evans Crime 2015 HDRip XViD ETRG | office 2016 for mac os |