Quick Browse
Movies
TV shows
Music
Games
Applications
Anime
Other
Facebook
Advertising

Friends
Torrent Download
Movie4u
1337x.to
Torrent Downloads




Verified torrent Fast and Furious 5 (2011) TSRip [Hin-Eng]@Mastitorrents


    Seeders : 1      Leechers : 59

Trackers List

Tracker NameLast CheckStatusSeedersLeechers




Torrent File Content (3 files)


Fast and Furious 5 (2011) TSRip Dual Audio [Hin-Eng](www.mastitorrents.com)
     Sample.mkv -
7.63 MB

     Fast and Furious 5 (2011) TSRip Dual Audio [Hin-Eng](www.mastitorrents.com).mkv -
615.95 MB

     www.mastitorrents.com.txt -
538 bytes



Description



[color=red][font=Georgia]mastitorrents.com

http://mastitorrents.com/forums/index.php

General
Complete name : F:\Fast and Furious 5 2011 TSRip Dual Audio [Hin-Eng]
Format : Matroska
File size : 616 MiB
Duration : 1h 55mn
Overall bit rate : 746 Kbps
Movie name : Fast and Furious 5 2011 TSRip Dual Audio [Hin-Eng] by imkhan -=[TDT]=-
Encoded date : UTC 2011-05-10 17:11:06
Writing application : mkvmerge v4.7.0 ('Just Like You Imagined') built on Apr 21 2011 01:13:14
Writing library : libebml v1.2.0 + libmatroska v1.1.0

Video
ID : 1
Format : AVC
Format/Info : Advanced Video Codec
Format profile : [email protected]
Format settings, CABAC : Yes
Format settings, ReFrames : 4 frames
Muxing mode : Container [email protected]
Codec ID : V_MPEG4/ISO/AVC
Duration : 1h 55mn
Bit rate : 539 Kbps
Nominal bit rate : 550 Kbps
Width : 720 pixels
Height : 304 pixels
Display aspect ratio : 2.35:1
Frame rate mode : Variable
Frame rate : 23.976 fps
Resolution : 24 bits
Colorimetry : 4:2:0
Scan type : Progressive
Bits/(Pixel*Frame) : 0.103
Stream size : 445 MiB (72%)
Title : imkhan
Writing library : x264 core 112
Encoding settings : cabac=1 / ref=2 / deblock=1:0:0 / analyse=0x1:0x111 / me=hex / subme=6 / psy=1 / psy_rd=1.00:0.00 / mixed_ref=0 / me_range=16 / chroma_me=1 / trellis=0 / 8x8dct=0 / cqm=0 / deadzone=21,11 / fast_pskip=1 / chroma_qp_offset=-2 / threads=6 / sliced_threads=0 / nr=0 / decimate=1 / interlaced=0 / constrained_intra=0 / bframes=2 / b_pyramid=2 / b_adapt=1 / b_bias=0 / direct=1 / weightb=0 / open_gop=0 / weightp=2 / keyint=250 / keyint_min=23 / scenecut=40 / intra_refresh=0 / rc_lookahead=40 / rc=2pass / mbtree=1 / bitrate=550 / ratetol=1.0 / qcomp=0.60 / qpmin=3 / qpmax=51 / qpstep=4 / cplxblur=20.0 / qblur=0.5 / ip_ratio=1.40 / aq=1:1.00
Language : Hindi
Audio #1
ID : 2
Format : MPEG Audio
Format version : Version 1
Format profile : Layer 3
Codec ID : A_MPEG/L3
Codec ID/Hint : MP3
Duration : 1h 55mn
Bit rate mode : Constant
Bit rate : 96.0 Kbps
Channel(s) : 2 channels
Sampling rate : 44.1 KHz
Resolution : 16 bits
Stream size : 79.2 MiB (13%)
Title : imkhan
Language : Hindi

Audio #2
ID : 3
Format : MPEG Audio
Format version : Version 1
Format profile : Layer 3
Codec ID : A_MPEG/L3
Codec ID/Hint : MP3
Duration : 1h 55mn
Bit rate mode : Constant
Bit rate : 96.0 Kbps
Channel(s) : 2 channels
Sampling rate : 44.1 KHz
Resolution : 16 bits
Stream size : 79.2 MiB (13%)
Title : imkhan
[/font][/color]

http://www.maxupload.net/images/41459192034444556897.jpeg

http://www.maxupload.net/images/29159519464647876374.jpeg

http://www.maxupload.net/images/10120944228251773124.jpeg

http://www.maxupload.net/images/38228855264439033266.jpeg

http://www.maxupload.net/images/20379703343364327941.jpeg

http://www.maxupload.net/images/93663079998659919783.jpeg

http://www.maxupload.net/images/58806560444402919594.jpeg

http://www.maxupload.net/images/67707088058860304356.jpeg

http://www.maxupload.net/images/16846357178158338275.jpeg

http://www.maxupload.net/images/91593814602211746992.jpeg

http://www.maxupload.net/images/65504510221647035120.jpeg

Related torrents

Torrent NameAddedSizeSeedLeechHealth
1 Comments
1 Good
Verified torrent
1 Year+ - in Movies756.19 MB00
1 Year+ - in Movies615.95 MB00
1 Year+ - in Movies396.83 MB1139
1 Year+ - in Movies1.14 GB2606
Verified torrent
1 Year+ - in Movies402.12 MB7720

Comments (0 Comments)




Please login or create a FREE account to post comments

Latest Searches

| finale 24 ufc | Brazzers kims yoga | ellen season 1 episode 12 | Brooklyn Nine Nine S04e08 | crooked 720p | rolling stones l a friday live | final fantasy 1080 advent children | Nubiles Kandace Kayne HEVC | 12 16 rq 1080p | MicroStation CONNECT Edition v10 0 |