Quick Browse
Movies
TV shows
Music
Games
Applications
Anime
Other
Facebook
Advertising

Friends
Torrent Download
Movie4u
1337x.to
Torrent Downloads




Feisbum.2009.iTALiAN.DVDRip.XviD-Republic.[ultimafronmtiera]


    Seeders : 6      Leechers : 133

Trackers List

Tracker NameLast CheckStatusSeedersLeechers




Torrent File Content (2 files)


Feisbum.2009.iTALiAN.DVDRip.XviD-Republic.avi
     Feisbum.2009.iTALiAN.DVDRip.XviD-Republic.CD1.avi -
700.01 MB

     Feisbum.2009.iTALiAN.DVDRip.XviD-Republic.CD2.avi -
696.07 MB



Description



http://i35.tinypic.com/23vevc8.jpg


http://i36.tinypic.com/2z8te9w.jpg


http://i36.tinypic.com/2wlzn9f.jpg


Titolo originale: Feisbum
Nazione: Italia
Anno: 2009
Genere: Commedia
Regia: Dino Giarrusso, Alessandro Capone, Giancarlo Rolandi, Emanuele Sana, Serafino Murri, Laura Luchetti, Mauro Mancini
Produzione: Film Maker, Just Us Production



http://i34.tinypic.com/301n9ec.jpg


[color=#00FF00]Primo Reggiani, Pietro Taricone, Gianni Garofalo, Francesca Chillemi, Chiara Francini, Anna Foglietta, Giulia Bevilacqua, Corrado Fortuna, Gigi Angelillo, Rosaria De Cicco, Pietro De Silva, Claudia Potenza[/color]

http://i33.tinypic.com/2ldeeyr.jpg


[color=orange]Il film nasce con l'intento di parlare (e far parlare!) di uno dei fenomeni divenuti più importanti ultimamente nel web. Facebook è un social network che in brevissimo tempo ha rivoluzionato le modalità di contatto tra le persone, coinvolgendo per la sua semplicità e immediatezza tutte le "fasce" di utenti di internet; con Facebook si ritrovano vecchie conoscenze, si creano nuove amicizie, si spia la vita degli altri e si dà agli altri la possibilità di entrare nella propria, si chatta, vengono condivise foto e video, si inventano nuove identità, si decide se "essere nella realtà" o se "inventarsi una realtà parallela" in cui, almeno virtualmente, vivere. "Feisbum", vuole essere un campionatore del mondo di Facebook e lo racconta attraverso 8 episodi girati da giovani registi, esordienti e non[/color]

http://i38.tinypic.com/2ihuvd2.jpg


[color=red] La manìa corre veloce, raggiungendo anche il cinema. Oltre a storpiare il nome del dilagante "social network" cui si riferisce, il titolo "Feisbum" sottolinea proprio l’esplosione del fenomeno, che in Italia ha raggiunto in breve milioni di utenti. L’idea di un "instant movie" è del produttore Marco Scaffardi, con la collaborazione di Serafino Murri (anche regista), messa in pratica - con tempi contingentati - attraverso 8 troupe in contemporanea (circa 500 le persone coinvolte, con autori quasi tutti esordienti) e 8 giorni di riprese, per un film a episodi pronto poco più di due mesi dopo la partenza e pubblicizzato col richiamo ad una delle storie (una ragazza che annulla le sue nozze dopo aver scoperto in Rete il tradimento del fidanzato, e per vendetta tappezza la città di volantini con le immagini-prova).
Lo spazio Internet viene utilizzato sì per ritrovare conoscenze, svilupparne di nuove e scambiare materiale ma, al pari di ogni mezzo umano, ha le sue degenerazioni. Quelle prese di mira qui. Ovvero l’esibizionismo così come la morbosa curiosità verso la vita altrui, oppure la protratta comunicazione digitale che rischia di sostituire la socialità, in un abuso che può portare al rifugio da una realtà insoddisfacente ("ti stai bruciando il cervello con queste stronzate, non hai più una vita"), alla creazione di personalità fittizie finalizzate a truffe e inganni, ad assurdità tipo lo scambio di amicizie virtuali per avere più contatti in poco tempo, fino ad allucinazioni e bulimia. Dal punto di vista di ciò che resta delle presunte differenze ideologiche, poi, la casistica è trasversale, interessando (i capitoli "Siempre!" e "Maledetto tag")
sia la borghesia di sinistra che di destra. Alcuni episodi (ai quali si aggiungono delle "pillole") hanno dinamica ed incisività, altri si ripetono con qualche variante, altri ancora sfiorano appena l’argomento e inerti girano a vuoto, nonostante la brevità.

La frase: "Lo sai che stai meglio, senza passamontagna?".
Federico Raponi

[/color]


http://i34.tinypic.com/1z1495e.jpg


[code]Format : AVI
Format/Info : Audio Video Interleave
File size : 696 MiB
Duration : 54mn 33s
Overall bit rate : 1 784 Kbps
Writing application : VirtualDubMod 1.5.10.2 (build 2540/release)
Writing library : VirtualDubMod build 2540/release

Video
ID : 0
Format : MPEG-4 Visual
Format profile : [email protected]
Format settings, BVOP : Yes
Format settings, QPel : No
Format settings, GMC : No warppoints
Format settings, Matrix : Default (MPEG)
Codec ID : XVID
Codec ID/Hint : XviD
Duration : 54mn 33s
Bit rate : 1 328 Kbps
Width : 656 pixels
Height : 352 pixels
Display aspect ratio : 1.864
Frame rate : 25.000 fps
Resolution : 24 bits
Colorimetry : 4:2:0
Scan type : Progressive
Bits/(Pixel*Frame) : 0.230
Stream size : 518 MiB (74%)
Writing library : XviD 1.2.1 (UTC 2008-12-04)

Audio
ID : 1
Format : AC-3
Format/Info : Audio Coding 3
Codec ID : 2000
Duration : 54mn 20s
Bit rate mode : Constant
Bit rate : 448 Kbps
Channel(s) : 6 channels
Channel positions : Front: L C R, Surround: L R, LFE
Sampling rate : 48.0 KHz
Stream size : 174 MiB (25%)
Alignment : Split accross interleaves [/code]


http://i38.tinypic.com/34hbbjr.jpg


http://www.youtube.com/watch?v=j208FoONjLU

Related torrents

Torrent NameAddedSizeSeedLeechHealth
1 Year+ - in Movies1.36 GB230745
1 Year+ - in Movies4.38 GB31
1 Year+ - in Movies1.36 GB66126
1 Year+ - in Movies1.37 GB10
1 Year+ - in Movies699.94 MB00

Comments (0 Comments)




Please login or create a FREE account to post comments

Latest Searches

| Lust und Bauernlummel | hibike euphonium kitauji | LA LA ADD | 720p sword art 01 24 | alex c html | Sommer Lust und Bauernlummel | madilyn bailey alex goot habits | Conan 2016 12 07 Jake Gyllenhaal 720p HDTV x264 FLEET | Michaela Mature | In Deep 2001 |