Quick Browse
Movies
TV shows
Music
Games
Applications
Anime
Other
Facebook
Advertising

Friends
Torrent Download
Movie4u
1337x.to
Torrent Downloads




Fergie feat Ludacris - Glamorous {XVID} [Solly4Life]


    Seeders : 0      Leechers : 0
Hash :31D7546FE16A47E778FDA50D2A0BC5A37AA61132
Added :1 Year+ in Music - Music
Size :53.63 MB
Stream :WATCH ONLINE @ Movie4u


Fergie feat Ludacris - Glamorous {XVID} [Solly4Life]
Free and Fast Download with Usenet 300GB+ free







Trackers List

Tracker NameLast CheckStatusSeedersLeechers




Torrent File Content (1 file)


     Fergie feat. Ludacris - Glamorous {XVID} [Solly4Life].rar -
53.63 MB



Description



Visit:
http://blog.bitcomet.com/9744199/

General
Complete name : Fergie feat. Ludacris - Glamorous {XVID} [Solly4Life].avi
Format : AVI
Format/Info : Audio Video Interleave
File size : 54.3 MiB
Duration : 4mn 16s
Overall bit rate : 1 776 Kbps
Writing library : Boilsoft Joiner build 2411/release

Video
Format : MPEG-4 Visual
Format profile : Streaming [email protected]
Format settings, BVOP : Yes
Format settings, QPel : No
Format settings, GMC : No warppoints
Format settings, Matrix : Default (H.263)
Muxing mode : Packed bitstream
Codec ID : XVID
Codec ID/Hint : XviD
Duration : 4mn 16s
Bit rate : 1 574 Kbps
Width : 640 pixels
Height : 480 pixels
Display aspect ratio : 4/3
Frame rate : 25.000 fps
Resolution : 24 bits
Colorimetry : 4:2:0
Scan type : Interlaced
Scan order : Bottom Field First
Bits/(Pixel*Frame) : 0.205
Stream size : 48.2 MiB (89%)
Writing library : XviD 1.1.2 (UTC 2006-11-01)

Audio
Format : MPEG Audio
Format version : Version 1
Format profile : Layer 3
Codec ID : 55
Codec ID/Hint : MP3
Duration : 4mn 16s
Bit rate mode : Constant
Bit rate : 192 Kbps
Channel(s) : 2 channels
Sampling rate : 48.0 KHz
Resolution : 16 bits
Stream size : 5.87 MiB (11%)
Alignment : Split accross interleaves
Interleave, duration : 40 ms (1.00 video frame)
Interleave, preload duration : 500 ms


Related torrents

Torrent NameAddedSizeSeedLeechHealth
Verified torrent
1 Year+ - in Music78.64 MB2616
1 Year+ - in Music50.52 MB00
1 Year+ - in Music145.36 MB10
1 Year+ - in Music8.33 MB01
1 Year+ - in Music55 MB04

Comments (0 Comments)




Please login or create a FREE account to post comments

Latest Searches

| Van Helsing S01E11 HDTV x264 LOLettv | Public Bang 4 Bang Bros 2016 | coming back dean ray | little guns | solo eminem | planeta dj 3 | fifth harmony sledgehammer | DD NATURALS | Mama English Uncensored | Modern Waf |