Quick Browse
Movies
TV shows
Music
Games
Applications
Anime
Other
Facebook
Advertising

Friends
Torrent Download
Movie4u
1337x.to
Torrent Downloads




Final Destination 5 2011 TS XViD-UnKnOwN


    Seeders : 0      Leechers : 0
Hash :EA8114CCFFEEC4770B1B8B2F3B120B85C58D514B
Added :1 Year+ by jumbotorrentsxVerified torrent uploader in Movies
Size :827.74 MB
Stream :WATCH ONLINE @ Movie4u


Final Destination 5 2011 TS XViD-UnKnOwN
Free and Fast Download with Usenet 300GB+ free







Trackers List

Tracker NameLast CheckStatusSeedersLeechers




Torrent File Content (9 files)


Final Destination 5 2011 TS XViD-UnKnOwN
    Screenshots
          vlcsnap-2011-08-17-00h01m31s135.png -
365.72 KB

          vlcsnap-2011-08-17-00h00m45s190.png -
331.6 KB

          vlcsnap-2011-08-17-00h03m52s2.png -
284.46 KB

          vlcsnap-2011-08-17-00h01m42s243.png -
274.37 KB

          vlcsnap-2011-08-17-00h03m27s11.png -
193.42 KB

     Final Destination 5 2011 TS XViD-UnKnOwN.avi -
826.32 MB

     Final Destination 5 2011 TS XViD-UnKnOwN.nfo -
1.39 KB

     Torrent downloaded from Limetorrents.com.txt -
48 bytes

     Torrent downloaded from Demonoid.me.txt -
46 bytes



Description



http://blog.80millionmoviesfree.com/wp-content/uploads/2011/05/final-destination-5-poster1.jpg


http://noob.hu/2011/08/17/vlcsnap-2011-08-17-00h01m42s243.png


http://noob.hu/2011/08/17/vlcsnap-2011-08-17-00h03m27s11.png


http://noob.hu/2011/08/17/vlcsnap-2011-08-17-00h01m31s135.png


[code]
ASurvivors of a suspension-bridge collapse learn there's no way you can cheat Death.

Director:
Steven Quale
Writers:
Eric Heisserer, Jeffrey Reddick
Stars:
Nicholas D'Agosto, Emma Bell and Arlen Escarpeta





General
Complete name : Final Destination 5 2011 TS XViD-UnKnOwN.avi
Format : AVI
Format/Info : Audio Video Interleave
File size : 812 MiB
Duration : 1h 27mn
Overall bit rate : 1 293 Kbps


Video
ID : 0
Format : MPEG-4 Visual
Format profile : Advanced [email protected]
Format settings, BVOP : 1
Format settings, QPel : No
Format settings, GMC : No warppoints
Format settings, Matrix : Custom
Codec ID : XVID
Codec ID/Hint : XviD
Duration : 1h 27mn
Bit rate : 1 153 Kbps
Width : 680 pixels
Height : 260 pixels
Display aspect ratio : 2.615
Frame rate : 29.970 fps
Color space : YUV
Chroma subsampling : 4:2:0
Bit depth : 8 bits
Scan type : Progressive
Compression mode : Lossy
Bits/(Pixel*Frame) : 0.218
Stream size : 724 MiB (89%)
Writing library : XviD 1.2.1 (UTC 2008-12-04)





Audio
ID : 1
Format : MPEG Audio
Format version : Version 1
Format profile : Layer 3
Codec ID : 55
Codec ID/Hint : MP3
Duration : 1h 27mn
Bit rate mode : Constant
Bit rate : 128 Kbps
Channel(s) : 2 channels
Sampling rate : 44.1 KHz
Compression mode : Lossy
Stream size : 80.4 MiB (10%)
Alignment : Aligned on interleaves
Interleave, duration : 33 ms (1.00 video frame)
[/code]

Related torrents

Torrent NameAddedSizeSeedLeechHealth
Verified torrent
1 Year+ - in Movies827.67 MB14
1 Year+ - in Movies827.74 MB01
1 Year+ - in Movies825.14 MB152
1 Year+ - in Movies1.29 GB12826
1 Year+ - in Movies895.87 MB542109

Comments (0 Comments)




Please login or create a FREE account to post comments

Latest Searches

| CD The Galway Boys Irish Collection Vol 2 | dont touch the | dragon ball super 69 | pixl broken bones | Amber Lynn Bach Mrs Bach Takes Cock | xxx hop | The Greatest Hits zz top | T I meek mill g season | MAKING THE BAND PART 4 | vanilla ice bi |