Quick Browse
Movies
TV shows
Music
Games
Applications
Anime
Other

Latest Articles

Friends
Torrents.me
Torrent Download
Movie4u
1337x
RARBG
Full Movies
Torrent Downloads

Verified torrent Final Destination 5 2011 TS XViD UnKnOwN


    Seeders : 1      Leechers : 4

Hash :5544B67DB7EB286DF062F222233C7023552A876F
Added :1 Year+ by jumbotorrentsxVerified torrent uploader in Movies
Size :827.67 MB
Stream :Watch Online Full Movie @ Movie4u
Share :


Final Destination 5 2011 TS XViD UnKnOwN
Download Direct And Anonymously







Warning! Do not Download Torrents Without a VPN!
Your IP Address is .   And Location is
Your Internet Provider and Government can track your torrent Activity!  Hide your IP ADDRESS with a VPN!
We Strongly Recommend Using CyberGhost VPN to Anonymize your Torrenting.

Note :

Please Update (Trackers Info) Before Downloading Torrents to See Updated Seeders And Leechers for Batter Download Speed.

Trackers List

Tracker NameLast CheckStatusSeedersLeechers




Torrent File Content (9 files)


Final Destination 5 2011 TS XViD UnKnOwN
     Final Destination 5 2011 TS XViD-UnKnOwN.avi -
826.25 MB

    Screenshots
          vlcsnap-2011-08-17-00h01m31s135.png -
365.72 KB

          vlcsnap-2011-08-17-00h00m45s190.png -
331.6 KB

          vlcsnap-2011-08-17-00h03m52s2.png -
284.46 KB

          vlcsnap-2011-08-17-00h01m42s243.png -
274.37 KB

          vlcsnap-2011-08-17-00h03m27s11.png -
193.42 KB

     Final Destination 5 2011 TS XViD-UnKnOwN.nfo -
1.39 KB

     Torrent downloaded from Limetorrents.com.txt -
48 bytes

     Torrent downloaded from Demonoid.me.txt -
46 bytes



Description



http://blog.80millionmoviesfree.com/wp-content/uploads/2011/05/final-destination-5-poster1.jpg


http://noob.hu/2011/08/17/vlcsnap-2011-08-17-00h01m42s243.png


http://noob.hu/2011/08/17/vlcsnap-2011-08-17-00h03m27s11.png


http://noob.hu/2011/08/17/vlcsnap-2011-08-17-00h01m31s135.png


[code]
ASurvivors of a suspension-bridge collapse learn there's no way you can cheat Death.

Director:
Steven Quale
Writers:
Eric Heisserer, Jeffrey Reddick
Stars:
Nicholas D'Agosto, Emma Bell and Arlen Escarpeta





General
Complete name : Final Destination 5 2011 TS XViD-UnKnOwN.avi
Format : AVI
Format/Info : Audio Video Interleave
File size : 812 MiB
Duration : 1h 27mn
Overall bit rate : 1 293 Kbps


Video
ID : 0
Format : MPEG-4 Visual
Format profile : Advanced [email protected]
Format settings, BVOP : 1
Format settings, QPel : No
Format settings, GMC : No warppoints
Format settings, Matrix : Custom
Codec ID : XVID
Codec ID/Hint : XviD
Duration : 1h 27mn
Bit rate : 1 153 Kbps
Width : 680 pixels
Height : 260 pixels
Display aspect ratio : 2.615
Frame rate : 29.970 fps
Color space : YUV
Chroma subsampling : 4:2:0
Bit depth : 8 bits
Scan type : Progressive
Compression mode : Lossy
Bits/(Pixel*Frame) : 0.218
Stream size : 724 MiB (89%)
Writing library : XviD 1.2.1 (UTC 2008-12-04)





Audio
ID : 1
Format : MPEG Audio
Format version : Version 1
Format profile : Layer 3
Codec ID : 55
Codec ID/Hint : MP3
Duration : 1h 27mn
Bit rate mode : Constant
Bit rate : 128 Kbps
Channel(s) : 2 channels
Sampling rate : 44.1 KHz
Compression mode : Lossy
Stream size : 80.4 MiB (10%)
Alignment : Aligned on interleaves
Interleave, duration : 33 ms (1.00 video frame)
[/code]

Related torrents

Torrent NameAddedSizeSeedLeechHealth
1 Year+ - in Movies827.74 MB00
1 Year+ - in Movies827.74 MB01
1 Year+ - in Movies825.14 MB152
10 months ago - in Other1.03 GB00
1 Year+ - in Movies1.29 GB12826

Note :

Feel free to post any comments about this torrent, including links to Subtitle, samples, screenshots, or any other relevant information. Please Dont Download anything from Comments, And Dont Post Links to Streaming Sites like Fmovies, Xmovies8, 123Movies, GoMovies, CMovieshd, Solarmovie, Watchfree, Putlockers, GoStream, m4ufree etc.

Comments (0 Comments)




Please login or create a FREE account to post comments

Latest Searches

| fifty vostfr | james bond 32 | EMPIRE 2015 S04E12 | Catwalk Poison 12 CWPBD 12 Aiki Kurosawa mp4 | epl 2012 04 21 | l love me 2012 movie | avi ita 5 1 | aikatsu 116 | center epub | bermuda epub |