Quick Browse
Movies
TV shows
Music
Games
Applications
Anime
Other
Facebook
Advertising

Friends
Torrent Download
Movie4u
1337x.to
Torrent Downloads




Verified torrent Fireball [2009] [DVD] [AC3] [Hannspree]


    Seeders : 0      Leechers : 0
Hash :C32BC6012479861DAA4F5ACB645B2795D8A8D000
Added :1 Year+ by HannspreeVerified torrent uploader in Movies
Size :1.67 GB
Stream :WATCH ONLINE @ Movie4u


Fireball [2009] [DVD] [AC3] [Hannspree]
Free and Fast Download with Usenet 300GB+ free







Trackers List

Tracker NameLast CheckStatusSeedersLeechers
http://bigfoot1942.sektori.org:6969/announce2 months agosuccess00
udp://tracker.coppersurfer.tk:802 months agosuccess00
udp://tracker.ilibr.org:6969/announce2 months agosuccess00
http://tracker.nwps.ws:6969/announce2 months agosuccess00
udp://ipv4.tracker.harry.lu:80/announce2 months agosuccess00
udp://9.rarbg.com:2710/announce2 months agosuccess00
http://tracker.trackerfix.com/announce2 months agosuccess00




Torrent File Content (11 files)


Fireball
    Fireball [DVD]
          VIDEO_TS/VIDEO_TS.BUP -
12 KB

          VIDEO_TS/VIDEO_TS.IFO -
12 KB

          VIDEO_TS/VIDEO_TS.VOB -
58 KB

          VIDEO_TS/VTS_01_0.BUP -
64 KB

          VIDEO_TS/VTS_01_0.IFO -
64 KB

          VIDEO_TS/VTS_01_0.VOB -
58 KB

          VIDEO_TS/VTS_01_1.VOB -
1023.97 MB

          VIDEO_TS/VTS_01_2.VOB -
689.65 MB

          Fireball [DVD] Covers/Fireball - Cover.jpg -
478.39 KB

          Fireball [DVD] Covers/Fireball - Disc.jpg -
37.73 KB

     Fireball [DVD].NFO -
6.94 KB



Description



=========================================================================================================================
[ Another free and high quality, ready to burn DVD - I will be adding new torrents on a daily basis - Remember to seed ]
=========================================================================================================================
MOVIE TITLE: Fireball
LANGUAGE: English
MOVIE SUBS: No - (subtitles if/when required)
BURN TESTED: Yes
FORMAT: Pal
GENRE: Action | Drama
RUNTIME: 90 Minutes
YEAR: 2009
IMDB LINK: http://www.imdb.com/title/tt1420771/
=========================================================================================================================
GENERAL MOVIE DESC:

Tai gets out of jail and discovers that his twin brother, Tan has been in coma for the past year. Tan has entered the world of Fireball, a violent game based on basketball hosted by underground criminal gangs, to raise money for Tai's early release. However, he was brutally beaten by another player, Tun. Tai agrees to join Den's team so that he can track down the man who hospitalised his brother. Tai is befriended by his teammates Singh, a Thai boxing champion who wants to prove that he is the best Muk, a Thai-African guy who needs money to support his family IQ, a cheerful character who only wants to help his mother and K, an old friend of Tan who has a mysterious past. He and his teammates must risk their lives and fight their way to the final round of the deadly Fireball championships so that Tai can avenge his brother on the court.
=========================================================================================================================
GENERAL MOVIE SPECS:

GENERAL:
Complete name : Fireball
Format : MPEG-PS
File size : 1.67 GB
Duration : 90 Minutes
Overall bit rate : 2 511 Kbps

VIDEO:
ID : 224 (0xE0)
Format : MPEG Video
Format version : Version 2
Format profile : [email protected]
Format settings, BVOP : Yes
Format settings, Matrix : Default
Duration : 90 Minutes
Bit rate mode : Variable
Bit rate : 2 269 Kbps
Nominal bit rate : 9 608 Kbps
Width : 720 pixels
Height : 576 pixels
Display aspect ratio : 16:9
Frame rate : 24.000 fps
Standard : PAL
Color space : YUV
Chroma subsampling : 4:2:0
Bit depth : 8 bits
Scan type : Progressive
Scan order : 2:2:2:2:2:2:2:2:2:2:2:3 Pulldown
Bits/(Pixel*Frame) : 0.228
Stream size : 925 MiB (90%)

AUDIO:
ID : 128 (0x80)
Format : AC-3
Format/Info : Audio Coding 3
Mode extension : CM (complete main)
Duration : 90 Minutes
Bit rate mode : Constant
Bit rate : 192 Kbps
Channel(s) : 2 channels
Channel positions : Front: L R
Sampling rate : 48.0 KHz
Stream size : 78.3 MiB (8%)
=========================================================================================================================

Related torrents

Torrent NameAddedSizeSeedLeechHealth
Verified torrent
1 Year+ - in Movies1.89 GB111
Verified torrent
1 Year+ - in Movies1.39 GB116
Verified torrent
1 Year+ - in Movies1.36 GB113
Verified torrent
1 Year+ - in Movies1.09 GB20
Verified torrent
1 Year+ - in Movies1.77 GB10

Comments (0 Comments)




Please login or create a FREE account to post comments

Latest Searches

| blade thomas | the hungover games 2014 unrated webrip x264 ac3 crewsade | Kelly Clarkson Piece By Piece idol | Ch y Alina Pics jpg | hur 3d | Tosh O Season 8 episode 5 | The Dream love king | Butts and Blacks Olivia Olovely c wmv | my little sissy | B G I aint no |