Quick Browse
Movies
TV shows
Music
Games
Applications
Anime
Other
Facebook
Advertising

Friends
Torrent Download
Movie4u
1337x.to
Torrent Downloads




Verified torrent Footloose (2011) DVDRip XviD-MAX


    Seeders : 0      Leechers : 0
Hash :2F205DB312338E06D02B14064DC58CC897652408
Added :1 Year+ by robyrsVerified torrent uploader in Movies
Size :791.34 MB
Stream :WATCH ONLINE @ Movie4u


Footloose (2011) DVDRip XviD-MAX
Free and Fast Download with Usenet 300GB+ free







Trackers List

Tracker NameLast CheckStatusSeedersLeechers




Torrent File Content (6 files)


Footloose (2011) DVDRip XviD-MAX
     Footloose (2011) DVDRip XviD-MAXSPEED www.torentz.3xforum.ro.avi -
791.34 MB

     The Hangover 2 (2011) DVDRip XviD-MAXSPEED.nfo -
2.98 KB

     Torrent downloaded from Demonoid.me.txt -
46 bytes

     Torrent downloaded from Extratorrent.com.txt -
40 bytes

     Torrent downloaded from h33t.com.txt -
32 bytes

     Torrent downloaded from Rarbg.com.txt -
33 bytes



Description



Image link:

http://shareimage.org/images/zv1fye0kvn70l5h897.jpg


Alternatives:

http://shareimage.org/images/3u2d8fp8f9wc3bvpc3as.jpg


http://shareimage.org/images/a5t3yumaat95i8dsbksr.jpg


http://shareimage.org/images/i2nx9r7q87mqqio6s5p.jpg


http://shareimage.org/images/o713gh7clytf6rncu69i.jpg


http://shareimage.org/images/l7wj0gqvdn99mnyf6kew.jpg


Footloose (2011) DVDRip XviD-MAX
Format : AVI
Format/Info : Audio Video Interleave
Format profile : OpenDML
Duration : 1h 37mn
Overall bit rate : 2 151 Kbps
Writing application : VirtualDubMod 1.5.10.2 (build 2542/release)
Writing library : VirtualDubMod build 2542/release
Original source form : MAX TORRENTZ
Copyright : SIGISMUNT

Video
ID : 0
Format : MPEG-4 Visual
Format profile : [email protected]
Format settings, BVOP : Yes
Format settings, QPel : No
Format settings, GMC : No warppoints
Format settings, Matrix : Custom
Codec ID : XVID
Codec ID/Hint : XviD
Duration : 1h 37mn
Bit rate : 1 950 Kbps
Width : 672 pixels
Height : 288 pixels
Display aspect ratio : 2.35:1
Frame rate : 29.970 fps
Resolution : 24 bits
Colorimetry : 4:2:0
Scan type : Progressive
Bits/(Pixel*Frame) : 0.336
Stream size : 1.33 GiB (91%)
Writing library : XviD 1.2.1 (UTC 2008-12-04)

Audio
ID : 1
Format : MPEG Audio
Format version : Version 1
Format profile : Layer 3
Codec ID : 55
Codec ID/Hint : MP3
Duration : 1h 37mn
Bit rate mode : Constant
Bit rate : 192 Kbps
Channel(s) : 2 channels
Sampling rate : 48.0 KHz
Resolution : 16 bits
Stream size : 134 MiB (9%)
Alignment : Aligned on interleaves
Interleave, duration : 24 ms (0.72 video frame)
Interleave, preload duration : 192 ms

http://www.imdb.com/title/tt1068242/

Source: DVDRip (perfect a/v/sync quality-original source resynced,sample included)
This torrent is not seedbox supported,please seed it to the MAX

Note:If you have something to offer as early releases,seedboxes,links,accounts,etc
please contact us on piratepedia[@]msn/gmail.com or our website torentz 3xforum ro

Footloose (2011) DVDRip XviD-MAX Torrent Free Download


How To Get Your Maxspeed (uTorrent)

Torrent Client - Preferences - Bandwidth - Number of connections - Set aprox. 500 for each
Torrent Client - Preferences - BiTorrent - Protocol Encryption - Forced
Bandwidth Allocation - High (Set download/upload limit - Unlimited)
Stop Other Active Torrents - Start downloading and wait for connections.
Enjoy and Seed for at least 1:1 ratio. Don't forget to say thanks/leave reviews.
Before downloading you should check/google search sample "release name""sample".
Greets to all actual/future p2p/scene QUALITY groups and affiliate websites.
Don't trust IMDb robot or bad ratings,always watch some trailers first.
Ignore stupid comments/fake/mislabeled/no-DVDrips/CAM/TS/RAR uploads.
Please spread this release/torrent to your friends/forums/etc.
If you need translation subs visit some subtitles sites.
Report if you see online streaming or other spam links.
Recommended movie player VLC PLAYER.

Related torrents

Torrent NameAddedSizeSeedLeechHealth
1 Comments
1 Year+ - in Movies1.81 GB00
5 months ago - in Movies918.91 MB00
5 months ago - in Movies2.68 GB00
1 Year+ - in Music127.71 MB726
1 Year+ - in Movies1.43 GB00

Comments (3 Comments)




bobbymills
» Voted Good Voted Good for this torrent for this torrent
--1

Added 1 Year+
fake fake fake
Quinuso
» Voted Good Voted Good for this torrent for this torrent
+1

Added 1 Year+
not the real dvdrip flickers at the mid but thx anyway

a 9
v 7
GTX2013
» Voted Good Voted Good for this torrent for this torrent

Added 1 Year+
movie sucks thanks for the upload anyway:(
Please login or create a FREE account to post comments

Latest Searches

| jaden smith s | adobe animate cc 2015 mac os | Leena Rey Im Failing College | Ae Dil Hai Mushkil 2016mkv | Rolled Gold The Very Best of the Rolling Stones | CBT Nuggets Database Various SQL | for honor pc iso | Drake motto ft lil Wayne tyga | Star vs the Forces of Evil WEB DL | mechanic system pro |