Quick Browse
Movies
TV shows
Music
Games
Applications
Anime
Other
Facebook
Advertising

Friends
Torrent Download
Movie4u
1337x.to
Torrent Downloads




Verified torrent Footloose 2011 DVDRIP XViD AC3-26K


    Seeders : 1      Leechers : 0
Hash :014C843076B0AB27AE1AF74D68BD7B4DF73A2611
Added :1 Year+ by memory100Verified torrent uploader in Movies
Size :1.52 GB
Stream :WATCH ONLINE @ Movie4u


Footloose 2011 DVDRIP XViD AC3-26K
Free and Fast Download with Usenet 300GB+ free







Trackers List

Tracker NameLast CheckStatusSeedersLeechers




Torrent File Content (9 files)


Footloose 2011 DVDRIP XViD AC3-26K
     Footloose 2011 DVDRIP XViD AC3-26K.avi -
1.49 GB

     Footloose 2011 DVDRIP XViD AC3-26K.idx -
57.79 KB

     Footloose 2011 DVDRIP XViD AC3-26K.nfo -
3.34 KB

     Footloose 2011 DVDRIP XViD AC3-26K.sub -
5.48 MB

     HDSceneRG.txt -
115 bytes

     Torrent downloaded from Demonoid.me.txt -
46 bytes

     att-networks.com.txt -
39 bytes

     sample.avi -
27.26 MB

     sceneunderground.org.txt -
77 bytes



Description



http://img32.imageshack.us/img32/3241/footloose.jpg

[code]
Footloose 2011 DVDRIP XViD AC3-26K

Imdb:
http://www.imdb.com/title/tt1068242/

Plot:
City kid Ren MacCormack moves to a small town where rock 'n' roll and dancing have been banned, and

his rebellious spirit shakes up the populace.

Sources:
DVDR-LEGEND THNXS!
Subs included!

Notes:
Enjoy!

Greetz:
Xtreme

Encode|FYA|ILLUMANTI|CM8|RX|VISION|HDSCENE|NIGHTMAREZ|xTriLL|DTRG|CRYS|REMIXHD|BIDA|RX|REFILL|INSPiRAL

|SIC|ZOMBIESZ|HOPE|Anonymous|GooN
To all the people who have helped me :P you know who you are

Anything to offer email us @: [email protected]

Video
ID : 0
Format : MPEG-4 Visual
Format profile : Advanced [email protected]
Format settings, BVOP : 2
Format settings, QPel : No
Format settings, GMC : No warppoints
Format settings, Matrix : Default (H.263)
Muxing mode : Packed bitstream
Codec ID : XVID
Codec ID/Hint : XviD
Duration : 1h 48mn
Bit rate : 1 496 Kbps
Width : 720 pixels
Height : 304 pixels
Display aspect ratio : 2.35:1
Frame rate : 25.000 fps
Color space : YUV
Chroma subsampling : 4:2:0
Bit depth : 8 bits
Scan type : Progressive
Compression mode : Lossy
Bits/(Pixel*Frame) : 0.273
Stream size : 1.14 GiB (76%)
Writing library : XviD 1.2.1 (UTC 2008-12-04)

Audio
ID : 1
Format : AC-3
Format/Info : Audio Coding 3
Mode extension : CM (complete main)
Codec ID : 2000
Duration : 1h 48mn
Bit rate mode : Constant
Bit rate : 448 Kbps
Channel(s) : 6 channels
Channel positions : Front: L C R, Side: L R, LFE
Sampling rate : 48.0 KHz
Bit depth : 16 bits
Compression mode : Lossy
Stream size : 348 MiB (23%)
Alignment : Aligned on interleaves
Interleave, duration : 32 ms (0.80 video frame)
Interleave, preload duration : 32 ms

[/code]
Screens:
http://img24.imageshack.us/img24/3681/vlcsnap2012020421h03m57png

http://img819.imageshack.us/img819/5247/vlcsnap2012020421h03m50.png

http://img696.imageshack.us/img696/4359/vlcsnap2012020421h02m57.png

http://img132.imageshack.us/img132/7106/vlcsnap2012020421h02m50.png

http://img27.imageshack.us/img27/9766/vlcsnap2012020421h02m46.png

http://img545.imageshack.us/img545/4508/footloose2011dvdripxvid.png


http://img851.imageshack.us/img851/5503/26ks.jpg

Thank you smallz for banner!

Related torrents

Torrent NameAddedSizeSeedLeechHealth
1 Year+ - in Movies1.52 GB01
1 Year+ - in Movies1.52 GB00
1 Year+ - in Movies1.4 GB11
1 Year+ - in Movies1.41 GB4434
1 Year+ - in Movies1.3 GB358

Comments (0 Comments)




Please login or create a FREE account to post comments

Latest Searches

| dragon ball legenda | j cole any given sunday 5 | Pink Panther movie | Tushy Jillian Janson Anya Olsen | family guy 10 full | BBC natural 2015 | Logic Pro Training Series | BS player pro 2 53 | SkyArk 1080p | dalida discography the compilation albums |