Quick Browse
Movies
TV shows
Music
Games
Applications
Anime
Other

Donate and Support

Friends
Torrents.me
Torrent Download
Free Movies
1337x
RARBG
Torrent Downloads

Verified torrent From Paris With Love 2010 BRrip H264 AC3-WTRG


    Seeders : 5      Leechers : 3
Hash :173705C7FAA9AC8A0979DCCC1973ED5D7F819D24
Added :1 Year+ by SG16031994Verified torrent uploader in Movies
Size :1.5 GB
Stream :Watch Full Movies Online @ Movie4u
Share :


From Paris With Love 2010 BRrip H264 AC3-WTRG
Anonymous and Direct Download 300GB+ free







Warning! Do not Download Torrents Without a VPN!
Your IP Address is .   And Location is
Your Internet Provider and Government can track your torrent Activity!  Hide your IP ADDRESS with a VPN!
We Strongly Recommend Using SpyOFF Torrent VPN to Anonymize your Torrenting. It's FREE For 15 Days!

Note :

Please Update (Trackers Info) Before Downloading Torrents to See Updated Seeders And Leechers for Batter Download Speed.

Trackers List

Tracker NameLast CheckStatusSeedersLeechers




Torrent File Content (3 files)


FromParisWithLove
     From Paris with Love.mkv -
1.5 GB

     from_paris_with_love-5.jpg -
121.84 KB

     Torrent downloaded from Demonoid.com.txt -
47 bytes



Description



From Paris With Love 2010 BRrip H264 AC3-WTRG
http://megarelease.net/wp-content/uploads/2010/05/From-Paris-with-Love-Blu-ray.jpg

http://myph.us/pics/64623_8we5inyn.png

General

Format : MKV
Format profile : Base Media / Version 2
Codec ID : mp42
File size : 1.50 GiB
Duration : 1h 32mn
Overall bit rate : 2 388 Kbps

Video
ID : 1
Format : AVC
Format/Info : Advanced Video Codec
Format profile : [email protected]
Format settings, CABAC : Yes
Format settings, ReFrames : 6 frames
Codec ID : avc1
Codec ID/Info : Advanced Video Coding
Duration : 1h 32mn
Bit rate mode : Variable
Bit rate : 2 000 Kbps
Width : 1 920 pixels
Height : 816 pixels
Display aspect ratio : 2.35:1
Frame rate mode : Variable
Frame rate : 23.976 fps
Minimum frame rate : 23.810 fps
Maximum frame rate : 24.390 fps
Resolution : 8 bits
Colorimetry : 4:2:0
Scan type : Progressive
Bits/(Pixel*Frame) : 0.053
Stream size : 1.29 GiB (84%)
Writing library : x264 core 79

Audio

ID : 2
Format : AAC
Format/Info : Advanced Audio Codec
Format version : Version 4
Format profile : LC
Format settings, SBR : No
Codec ID : 40
Duration : 1h 32mn
Bit rate mode : Variable
Bit rate : 384 Kbps
Maximum bit rate : 558 Kbps
Channel(s) : 6 channels
Channel positions : Front: L C R, Side: L R, LFE
Sampling rate : 48.0 KHz
Stream size : 254 MiB (16%)
Language : English
http://i49.tinypic.com/25ic0hd.jpg

A low-ranking intelligence operative (Jonathan Rhys Meyers) working in the office of the U.S. Ambassador in France takes on more than he bargained for when he partners with a wisecracking, fast-shooting, high-ranking U.S. agent (John Travolta) who’s been sent to Paris to stop a terrorist attack.
http://i48.tinypic.com/9k1gty.png

Starring: John Travolta, Jonathan Rhys Meyers, Kasia Smutniak, Richard Durden.

IMDB:http://www.imdb.com/title/tt1179034/
http://i50.tinypic.com/153r3h2.jpg

http://a.imageshack.us/img827/8940/paris1.jpg

http://a.imageshack.us/img837/9364/paris2.jpg

http://a.imageshack.us/img831/8890/paris3.jpg

http://a.imageshack.us/img534/428/paris4x.jpg

http://i35.tinypic.com/148j4nr.jpg

http://i36.tinypic.com/2dl2og3.jpg
[/b]
http://torrent-stats.info/dccc/cc37b294.png

[/center]

Related torrents

Torrent NameAddedSizeSeedLeechHealth
1 Year+ - in Movies1.72 GB26
1 Year+ - in Movies1.17 GB27
1 Year+ - in Movies907.75 MB00
1 Year+ - in Movies1 GB64
1 Year+ - in Movies399.3 MB81

Comments (1 comment)




SG16031994
» Torrent Uploader Torrent Uploader

Added 1 Year+
Enjoy All.......
Please login or create a FREE account to post comments

Latest Searches

| polymer processing principles and design | hell on wheels season Rick | Sowkarpettai 2016 Tamil DVDScr x264 Mp3 700MB mkv | the recovery of the absolute artifact | project runway s04e03 all | moto2 race motegi | Blood Father 2016 BDRip x264 AC3 FRWL PRiME | What rich | NetGirl Akkara Returns | boy fuckers |