Quick Browse
TV shows

Latest Articles

Torrent Download
Free Movies
Torrent Downloads

G-Force (2009) (MPEG-4)(IPONE)(Dutch) Lions-Team

    Seeders : 0      Leechers : 0

Hash :8930FC126C8E4B515FBC4C0D8062EECBBA55676B
Added :1 Year+ in Movies
Size :987.4 MB
Stream :Watch Online Full Movie @ Movie4u
Share :

G-Force (2009) (MPEG-4)(IPONE)(Dutch) Lions-Team
Download Direct And Anonymously

Warning! Do not Download Torrents Without a VPN!
Your IP Address is .   And Location is
Your Internet Provider and Government can track your torrent Activity!  Hide your IP ADDRESS with a VPN!
We Strongly Recommend Using CyberGhost VPN to Anonymize your Torrenting.

Note :

Please Update (Trackers Info) Before Downloading Torrents to See Updated Seeders And Leechers for Batter Download Speed.

Trackers List

Tracker NameLast CheckStatusSeedersLeechers
udp://p4p.arenabg.com:13375 months agosuccess00
udp://9.rarbg.to:2710/announce5 months agosuccess00
udp://tracker.trackerfix.com:80/announce5 months agosuccess00
http://explodie.org:6969/announce5 months agosuccess00
http://inferno.demonoid.com:3390/announce5 months agosuccess00
udp://inferno.demonoid.com:3390/announce5 months agosuccess00
udp://tracker.coppersurfer.tk:805 months agosuccess00
udp://tracker.coppersurfer.tk:6969/announce5 months agosuccess00
http://tracker.tfile.me/announce5 months agosuccess00
udp://tracker.leechers-paradise.org:6969/announce5 months agosuccess00
http://tracker.trackerfix.com/announce5 months agosuccess00
udp://9.rarbg.me:2710/announce5 months agosuccess00

Torrent File Content (5 files)

G-Force (2009) (MPEG-4)(IPONE)(Dutch) Lions-Team
    INFO 2Lions-Team
          logo 2Lions.jpg -
314.99 KB

          g force poster.png -
123.14 KB

          G-Force (2009) (MPEG-4)(IPONE)(Dutch) Lions-Team.txt -
3.16 KB

          Torrents aan geboden door _2lions.ons-forum.nl.txt -
583 bytes

          G Force.mp4 -
986.97 MB


G-Force (2009) (MPEG-4)(IPONE)(Dutch) Lions-Team 


Vanaf 24 november in de videotheek

De Amerikaanse overheid heeft besloten om dieren te trainen om in de spionage te werken. Het lot van de wereld komt in de handen terecht van twee cavia's, Darwin en Juarez, wanneer zij op pad worden gestuurd om een plan te stoppen van een gestoorde miljardair. Hierbij worden ze bijgestaan door de cavia Blaster, de hamster Bucky, de vlieg Mooch en computerspecialist Speckles, een mol.


The story is about a team of trained secret agent guinea pigs that takes on a mission for the US government. A specially trained squad of guinea pigs is dispatched to stop a diabolical billionaire, who plans to taking over the world with household appliances

Moviemeter info:

Categorie : Beeld
Formaat : MPEG-4
Bron : Retail
Audio : Dutch

[code]Format : MPEG-4
Format profile : Base Media
Codec ID : isom
File size : 987 MiB
Duration : 1h 24mn
Overall bit rate : 1 630 Kbps

ID : 1
Format : MPEG-4 Visual
Format profile : [email protected]
Format settings, BVOP : No
Format settings, QPel : No
Format settings, GMC : No warppoints
Format settings, Matrix : Default (H.263)
Codec ID : 20
Duration : 1h 24mn
Bit rate mode : Variable
Bit rate : 1 498 Kbps
Width : 720 pixels
Height : 406 pixels
Display aspect ratio : 16/9
Frame rate mode : Constant
Frame rate : 25.000 fps
Resolution : 24 bits
Colorimetry : 4:2:0
Scan type : Progressive
Bits/(Pixel*Frame) : 0.205
Stream size : 907 MiB (92%)
Writing library : Lavc51.40.4

ID : 2
Format : AAC
Format/Info : Advanced Audio Codec
Format version : Version 4
Format profile : LC
Format settings, SBR : No
Codec ID : 40
Duration : 1h 24mn
Bit rate mode : Variable
Bit rate : 128 Kbps
Channel(s) : 2 channels
Channel positions : L R
Sampling rate : 48.0 KHz
Resolution : 16 bits
Stream size : 77.5 MiB (8%)[/code]

Genre : Actie

Weblink : http://moviemeter.nl/film/54989
Weblink : http://www.imdb.com/title/tt0436339


Brought to you by

2Lions Team


2Lions-Team for all your Dutch MOVIES and more


DON T HIT AND RUN Niet gelijk afhaken als de film binnen is blijf seeden.

Related torrents

Torrent NameAddedSizeSeedLeechHealth
1 Year+ - in Movies879.92 MB25
1 Year+ - in Movies964.69 MB310
1 Year+ - in Movies987.28 MB235
1 Year+ - in Movies1.21 GB10
1 Year+ - in Movies1.2 GB51

Note :

Feel free to post any comments about this torrent, including links to Subtitle, samples, screenshots, or any other relevant information. Please Dont Download anything from Comments, And Dont Post Links to Streaming Sites like Fmovies, Xmovies8, 123Movies, GoMovies, CMovieshd, Solarmovie, Watchfree, Putlockers, GoStream, m4ufree etc.

Comments (0 Comments)

Please login or create a FREE account to post comments

Latest Searches

| Britney Amber is really Bushy | najdusza wojna | gina samsung | DK The Shakespeare Book Big Ideas Simply Explained | PhantomPDF 5 1 | Lip Sync Battle Season 1 | a z vs keyplayer | king kong 1933 espanol | Devilman Crybaby 2018 | MomsInControl Mercedes Carrera Noemie Bilas Stage Stepmom |