Quick Browse
Movies
TV shows
Music
Games
Applications
Anime
Other
Facebook
Advertising

Friends
Torrent Download
Movie4u
1337x.to
Torrent Downloads




G-Force (2009) (MPEG-4)(IPONE)(Dutch) Lions-Team


    Seeders : 63      Leechers : 39
Hash :8930FC126C8E4B515FBC4C0D8062EECBBA55676B
Added :1 Year+ in Movies
Size :987.4 MB
Stream :WATCH ONLINE @ Movie4u


G-Force (2009) (MPEG-4)(IPONE)(Dutch) Lions-Team
Free and Fast Download with Usenet 300GB+ free







Trackers List

Tracker NameLast CheckStatusSeedersLeechers




Torrent File Content (5 files)


G-Force (2009) (MPEG-4)(IPONE)(Dutch) Lions-Team
    INFO 2Lions-Team
          logo 2Lions.jpg -
314.99 KB

          g force poster.png -
123.14 KB

          G-Force (2009) (MPEG-4)(IPONE)(Dutch) Lions-Team.txt -
3.16 KB

          Torrents aan geboden door _2lions.ons-forum.nl.txt -
583 bytes

    MOVIE
          G Force.mp4 -
986.97 MB



Description



G-Force (2009) (MPEG-4)(IPONE)(Dutch) Lions-Team 

http://img233.imageshack.us/img233/1107/gforceposter.png



Vanaf 24 november in de videotheek

De Amerikaanse overheid heeft besloten om dieren te trainen om in de spionage te werken. Het lot van de wereld komt in de handen terecht van twee cavia's, Darwin en Juarez, wanneer zij op pad worden gestuurd om een plan te stoppen van een gestoorde miljardair. Hierbij worden ze bijgestaan door de cavia Blaster, de hamster Bucky, de vlieg Mooch en computerspecialist Speckles, een mol.





English

The story is about a team of trained secret agent guinea pigs that takes on a mission for the US government. A specially trained squad of guinea pigs is dispatched to stop a diabolical billionaire, who plans to taking over the world with household appliances







Moviemeter info:


Spotinformatie
Categorie : Beeld
Formaat : MPEG-4
Bron : Retail
Audio : Dutch

[code]Format : MPEG-4
Format profile : Base Media
Codec ID : isom
File size : 987 MiB
Duration : 1h 24mn
Overall bit rate : 1 630 Kbps


Video
ID : 1
Format : MPEG-4 Visual
Format profile : [email protected]
Format settings, BVOP : No
Format settings, QPel : No
Format settings, GMC : No warppoints
Format settings, Matrix : Default (H.263)
Codec ID : 20
Duration : 1h 24mn
Bit rate mode : Variable
Bit rate : 1 498 Kbps
Width : 720 pixels
Height : 406 pixels
Display aspect ratio : 16/9
Frame rate mode : Constant
Frame rate : 25.000 fps
Resolution : 24 bits
Colorimetry : 4:2:0
Scan type : Progressive
Bits/(Pixel*Frame) : 0.205
Stream size : 907 MiB (92%)
Writing library : Lavc51.40.4


Audio
ID : 2
Format : AAC
Format/Info : Advanced Audio Codec
Format version : Version 4
Format profile : LC
Format settings, SBR : No
Codec ID : 40
Duration : 1h 24mn
Bit rate mode : Variable
Bit rate : 128 Kbps
Channel(s) : 2 channels
Channel positions : L R
Sampling rate : 48.0 KHz
Resolution : 16 bits
Stream size : 77.5 MiB (8%)[/code]



Genre : Actie
Avontuur

Weblink : http://moviemeter.nl/film/54989
Weblink : http://www.imdb.com/title/tt0436339

*****************************************


Brought to you by
Pioen
http://i226.photobucket.com/albums/dd118/FloraKing/Avator/bloemenmeisje.gif

2Lions Team



http://i845.photobucket.com/albums/ab16/hortencia9/_96637_four_weddings_and_a_funeral_.jpg



2Lions-Team for all your Dutch MOVIES and more

*****************************************

DON T HIT AND RUN Niet gelijk afhaken als de film binnen is blijf seeden.

Related torrents

Torrent NameAddedSizeSeedLeechHealth
1 Year+ - in Movies879.92 MB25
1 Year+ - in Movies964.69 MB310
1 Year+ - in Movies987.28 MB235
1 Year+ - in Movies1.21 GB10
1 Year+ - in Movies1.2 GB51

Comments (0 Comments)




Please login or create a FREE account to post comments

Latest Searches

| 7 s and 8 s hits | The Exorcist S01E09 720p HDTV x264 AVS mkv | navystrong | ita hunger games part | Langsuir Stories | rebels bluray star wars | Homemade amateur sex black | de jonge | van helsing afg | DjDjDjDjDjNNNDjDj DjNNDjDjDjDj DjDjNDjDjDj |