Quick Browse
Movies
TV shows
Music
Games
Applications
Anime
Other
Facebook
Advertising

Friends
Torrent Download
Movie4u
1337x.to
Torrent Downloads




Verified torrent Gal Costa - Bem Bom[EacFlacCue](TntVillage)


    Seeders : 6      Leechers : 13
Hash :85CC068BFBBB3F2164E4E737169F2D005267791A
Added :1 Year+ by leoneneroVerified torrent uploader in Music - Music
Size :320.59 MB
Stream :WATCH ONLINE @ Movie4u


Gal Costa - Bem Bom[EacFlacCue](TntVillage)
Free and Fast Download with Usenet 300GB+ free







Trackers List

Tracker NameLast CheckStatusSeedersLeechers




Torrent File Content (15 files)


G4l C0st4 - B3m B0m
     01 - Track01.flac -
29.2 MB

     02 - Track02.flac -
33.33 MB

     03 - Track03.flac -
47.06 MB

     04 - Track04.flac -
28.06 MB

     05 - Track05.flac -
26.79 MB

     06 - Track06.flac -
22.67 MB

     07 - Track07.flac -
28.36 MB

     08 - Track08.flac -
22.85 MB

     09 - Track09.flac -
28.58 MB

     10 - Track10.flac -
19.97 MB

     11 - Track11.flac -
33.66 MB

     b3m b0m.cue -
1.63 KB

     b3m b0m.log -
10.35 KB

     f0ld3r.jpg -
57.63 KB

     G4l C0st4 - b3m b0m.m3u -
209 bytes



Description



http://img198.imageshack.us/img198/2434/progettocover.jpg


http://img31.imageshack.us/img31/3249/galcostabembomfront.jpg

http://img194.imageshack.us/img194/7607/galcostabembomback.jpg


Título Original: Bem Bom
Gênero: MPB
Intérprete: Gal Costa
Quantidade de Discos: 1
Tipo de Embalagem: Digifile
Ano de Lançamento: 1985
Gravadora: Sony Music
Time: 79:01

http://img98.imageshack.us/img98/9113/progettotracklist.jpg


1. Sorte [04.12]
2. O último Blues [04.43]
3. Um Dia De Domingo [06.12]
4. Acende O Crepúsculo [03.46]
5. Muito Por Demais [03.57]
6. Romance [03.27]
7. Musa De Qualquer Estação [03.46]
8. Bem Bom [03.19]
9. Todo O Amor Que Houver Nesta Vida [04.10]
10. Quem Perguntou Por Mim [03.31]
11. De Volta Ao Futuro [04.38]


http://img210.imageshack.us/img210/734/progettorecensione.jpg

Quello che oggi ho il piacere di presentarvi è il cd più venduto della nota cantante. La musica trasmette ritmi popolari mescolati con suoni più sofisticati. Accompagnata nel brano UM DIA DE DOMINGO dal mitico Tim Maia, i due sono riusciti a rendere questa semplice ballata molto struggente. Altra canzone degna di nota, è sicuramente la prima fascia, SORTE, cantata in duetto con il suo amico Caetano Veloso, ecco, questa è un interessante ed eclettica canzone da non dimenticare
Pop rock, Frejat e Cazuza, Marina, Roberto, Erasmo, Cicerone e la MPB classica di Chico Buarque, Milton Nascimento e Fernando Brant sono le altre composizioni cantate dalla Costa, cito come degna di nota BEM BOM, canzone che da anche il titolo al cd, classico di Joao Gilberto. Buon ascolto.

http://img121.imageshack.us/img121/5530/progettodescrizione.jpg


Gal Costa
Nata a Salvador de Bahia con il nome di Maria de Graca Costa Penna Burgos, Gal Costa e' cresciuta ascoltando canzoni alla radio, classici brasiliani, rock e jazz, tra cui Cole Porter e Stevie Wonder, ma non solo: "Ho sempre amato, dice, le grandi cantanti americane come Billie Holiday, Sarah Vaughan e Ella Fitzgerald". Trovo' il primo lavoro in un negozio di dischi, finche' la passione per la musica trasformo' sogni e ambizioni in realta' . Sono 20 gli album che scandiscono le tappe di una carriera maturata nel milieu culturale di Bahia, a fianco di artisti quali Gilberto Gil, Joao Gilberto e Caetano Veloso, suo maestro. Proprio da questo ambiente, dall' impegno civile, oltre che musicale, di questo gruppo, un quarto di secolo fa nacque il "Tropicalismo", un movimento, di cui Gal Costa fu tra le maggiori esponenti, che si proponeva il recupero delle piu' pure tradizioni della canzone brasiliana, arricchite di testi in grado di raccontare i drammi del Paese. La "militanza" costo' a molti suoi sostenitori, tra cui Gil e Veloso, il carcere e l' esilio. Oggi popolarissima in tutto il mondo, Gal Costa si affaccio' nelle vetrine musicali nel ' 67 con il disco "Domingo", al quale segui' una vasta produzione che annovera, tra gli altri, successi come "Agua viva", "Bem Bom", "Baby Gal". Nel 1992 impresse un memorabile sigillo alla sua notorieta' alla Conferenza di EcoRio, cantando in duo con Placido Domingo. Nella sua voce vive l' anima del Brasile, il respiro profondo di un Paese dove la dolce sensualita' delle melodie affonda le radici nella sofferenza. Gal Costa non e' soltanto una cantante, e' una grande interprete dei sentimenti di un popolo, dei suoi ritmi, della sua poesia e delle sue contraddizioni che vibrano nel dolore dell' ingiustizia. La "Tigre di Bahia", come e' stata definita.
http://img713.imageshack.us/img713/7143/progettodatitecnici.jpg

Exact Audio Copy V1.0 beta 1 from 15. November 2010

EAC extraction logfile from 18. October 2011, 10:47

Gal Costa / bem bom

Used drive : HL-DT-STDVDRAM GSA-T40N Adapter: 0 ID: 0

Read mode : Secure
Utilize accurate stream : Yes
Defeat audio cache : No
Make use of C2 pointers : Yes

Read offset correction : 667
Overread into Lead-In and Lead-Out : No
Fill up missing offset samples with silence : Yes
Delete leading and trailing silent blocks : No
Null samples used in CRC calculations : No
Used interface : Native Win32 interface for Win NT & 2000
Gap handling : Not detected, thus appended to previous track

Used output format : User Defined Encoder
Selected bitrate : 768 kBit/s
Quality : High
Add ID3 tag : No
Command line compressor : c:\Users\leomarco\Contacts\Desktop\Exact Audio Copy\FLAC\FLAC.EXE
Additional command line options : -6 -V -T "ARTIST=%a" -T "TITLE=%t" -T "ALBUM=%g" -T "DATE=%y" -T "TRACKNUMBER=%n" -T "GENRE=%m" -T "COMMENT=%e" %j--picture="%i"%j %s -o %d


TOC of the extracted CD

Track | Start | Length | Start sector | End sector
---------------------------------------------------------
1 | 0:00.00 | 4:12.42 | 0 | 18941
2 | 4:12.42 | 4:43.50 | 18942 | 40216
3 | 8:56.17 | 6:12.60 | 40217 | 68176
4 | 15:09.02 | 3:46.18 | 68177 | 85144
5 | 18:55.20 | 3:57.70 | 85145 | 102989
6 | 22:53.15 | 3:27.02 | 102990 | 118516
7 | 26:20.17 | 3:46.15 | 118517 | 135481
8 | 30:06.32 | 3:19.30 | 135482 | 150436
9 | 33:25.62 | 4:10.38 | 150437 | 169224
10 | 37:36.25 | 3:31.32 | 169225 | 185081
11 | 41:07.57 | 4:38.30 | 185082 | 205961


Track 1

Filename C:\Users\leomarco\Contacts\Desktop\01 - Track01.Flac

Peak level 99.9 %
Extraction speed 9.3 X
Track quality 100.0 %
Test CRC 5BA618C2
Copy CRC 5BA618C2
Track not present in AccurateRip database
Copy OK

Track 2

Filename C:\Users\leomarco\Contacts\Desktop\02 - Track02.Flac

Peak level 98.8 %
Extraction speed 9.9 X
Track quality 99.9 %
Test CRC 0A70062A
Copy CRC 0A70062A
Track not present in AccurateRip database
Copy OK

Track 3

Filename C:\Users\leomarco\Contacts\Desktop\03 - Track03.Flac

Peak level 98.8 %
Extraction speed 11.4 X
Track quality 100.0 %
Test CRC 7643D4DB
Copy CRC 7643D4DB
Track not present in AccurateRip database
Copy OK

Track 4

Filename C:\Users\leomarco\Contacts\Desktop\04 - Track04.Flac

Peak level 98.8 %
Extraction speed 12.0 X
Track quality 100.0 %
Test CRC 74B9F11D
Copy CRC 74B9F11D
Track not present in AccurateRip database
Copy OK

Track 5

Filename C:\Users\leomarco\Contacts\Desktop\05 - Track05.Flac

Peak level 98.8 %
Extraction speed 12.8 X
Track quality 100.0 %
Test CRC B359C606
Copy CRC B359C606
Track not present in AccurateRip database
Copy OK

Track 6

Filename C:\Users\leomarco\Contacts\Desktop\06 - Track06.Flac

Peak level 98.8 %
Extraction speed 13.4 X
Track quality 100.0 %
Test CRC DEC6C19A
Copy CRC DEC6C19A
Track not present in AccurateRip database
Copy OK

Track 7

Filename C:\Users\leomarco\Contacts\Desktop\07 - Track07.Flac

Peak level 98.8 %
Extraction speed 14.1 X
Track quality 100.0 %
Test CRC 5FBA446C
Copy CRC 5FBA446C
Track not present in AccurateRip database
Copy OK

Track 8

Filename C:\Users\leomarco\Contacts\Desktop\08 - Track08.Flac

Peak level 99.9 %
Extraction speed 14.5 X
Track quality 100.0 %
Test CRC A7E0E548
Copy CRC A7E0E548
Track not present in AccurateRip database
Copy OK

Track 9

Filename C:\Users\leomarco\Contacts\Desktop\09 - Track09.Flac

Peak level 99.9 %
Extraction speed 15.1 X
Track quality 99.9 %
Test CRC B5A4E79E
Copy CRC B5A4E79E
Track not present in AccurateRip database
Copy OK

Track 10

Filename C:\Users\leomarco\Contacts\Desktop\10 - Track10.Flac

Peak level 99.9 %
Extraction speed 16.8 X
Track quality 100.0 %
Test CRC E9767D64
Copy CRC E9767D64
Track not present in AccurateRip database
Copy OK

Track 11

Filename C:\Users\leomarco\Contacts\Desktop\11 - Track11.Flac

Peak level 98.8 %
Extraction speed 17.5 X
Track quality 100.0 %
Test CRC DEE972A8
Copy CRC DEE972A8
Track not present in AccurateRip database
Copy OK


None of the tracks are present in the AccurateRip database

No errors occurred

End of status report

==== Log checksum EC2C8805718F4A2A712FBE00E639F7B9761EFA42178916733902529757D0ED8B ====
http://img521.imageshack.us/img521/763/progettobandaeseed.jpg

Per i primi 10: 24 su 24:80/90 Kb/s

Related torrents

Torrent NameAddedSizeSeedLeechHealth
Verified torrent
1 Year+ - in Music219.88 MB77
Verified torrent
1 Year+ - in Music243.82 MB1715
1 Year+ - in Music223.83 MB86
1 Year+ - in Music106.13 MB00
1 Year+ - in Music329.5 MB1014

Comments (0 Comments)




Please login or create a FREE account to post comments

Latest Searches

| sabrina carpenter eyes wide open kbps | serum 1 5 | Samurai Kings the movie | torrent | live on 2016 | Cento Fiori l Italia delle Radio Libere SatRip Ita TNT Village | CELEBRITY WITH BIG BOOBS | pmv amateur | First Time Auditions 26 2013 DVDRip | BREAKING BAD SEASON 1 full season |