Quick Browse
Movies
TV shows
Music
Games
Applications
Anime
Other
Facebook
Advertising

Friends
Torrent Download
Movie4u
1337x.to
Torrent Downloads




Verified torrent Gal Costa - Gal Costa[EacFlacCue](TntVillage)


    Seeders : 17      Leechers : 15
Hash :26E8F39A5C6A35652A7DBF282A77460BA4624E67
Added :1 Year+ by leoneneroVerified torrent uploader in Music - Music
Size :243.82 MB
Stream :WATCH ONLINE @ Movie4u


Gal Costa - Gal Costa[EacFlacCue](TntVillage)
Free and Fast Download with Usenet 300GB+ free







Trackers List

Tracker NameLast CheckStatusSeedersLeechers




Torrent File Content (17 files)


Gal Costa - Gal Costa
     00._%GalCosta%GalCosta%.nfo -
2.3 KB

     01 - Nao Identificado.flac -
20.19 MB

     02 - Sebastiana.flac -
14.94 MB

     03 - Lost In The Paradise.flac -
16.72 MB

     04 - Namorinho De Portao.flac -
15.6 MB

     05 - Saudosismo.flac -
19.59 MB

     06 - Se Voce Pensa.flac -
21.82 MB

     07 - Vou Recomecar.flac -
20.75 MB

     08 - Divino, Maravilhoso.flac -
25.47 MB

     09 - Que Pena (Ele Ja Nao Gosta Mais De Mim).flac -
23.59 MB

     10 - Baby.flac -
20.24 MB

     11 - A Coisa Mais Linda Que Existe.flac -
26.5 MB

     12 - Deus e o Amor.flac -
18.33 MB

     Gal Costa - Gal Costa - Front.jpg -
59 KB

     Gal Costa - Gal Costa.log -
11.69 KB

     Gal Costa - Gal Costa.m3u -
349 bytes

     Gal Costa.cue -
1.76 KB



Description



http://img198.imageshack.us/img198/2434/progettocover.jpg


http://img442.imageshack.us/img442/5669/galcostagalcostafront.jpg


http://img835.imageshack.us/img835/5453/galcostagalcostaback.jpg


http://img545.imageshack.us/img545/4614/dsc00760.gif


Artist: Gal Costa
Title Of Album: Gal Costa
Etichetta: Philips
Pubblicazione: LP:1969 - CD:2010
Genre: Mpb
Style: Bossanova
Source: CD
Playing Time: 39.32
Total Size: 243,74 MB
Quality: FLAC+Cue+Log+Info+Cover
Bitrate: Lossless


http://img98.imageshack.us/img98/9113/progettotracklist.jpg


1. Não Identificado [03.13]
2. Sebastiana [02.26]
3. Lost In The Paradise [02.52]
4. Namorinho De Portão [02.33]
5. Saudosismo [03.11]
6. Se Voce Pensa [03.16]
7. Vou Recomeçar [03.26]
8. Divino, Maravilhoso [04.23]
9. Que Pena (Ele Já Não Gosta Mais De Mim) [03.43]
10. Baby [03.30]
11. A Coisa Mais Linda Que Existe [04.01]
12. Deus é o Amor [02.52]


http://img210.imageshack.us/img210/734/progettorecensione.jpg


Primo album da solista di Gal Costa, registrato nel secondo semestre dell'anno tropicalista 1968, messo in commercio nel 69. Gal all'epoca, arrivava da un lavoro precedentemente fatto con Caetano Veloso ed anche il presente doveva essere registrato in coppia con Maria Bethânia, la quale dovette desistere all'ultimo momento a causa di un contratto precedentemente firmato con un'altra casa discografica. Fu, forse la vera fortuna di Gal, infatti si ritrovò fra le mani il brano BABY. La musica, scritta da Caetano arrivò all'apice delle classifiche e Gal si presentò al iv Festival da Record con un'altro capolavoro contenuto nell'album, il brano si chiama Divino Meravilhoso, scritto appositamente per lei da Gilberto Gil e Caetano Veloso. I due, li ritroviamo a duettare con la musa brasiliana in diverse fascie dell'album Buon ascolto a tutti!

http://img121.imageshack.us/img121/5530/progettodescrizione.jpg

http://img818.imageshack.us/img818/3416/galcosta1.gif


Gal Costa nata Maria da Graça Costa Penna Burgos (Salvador, 26 settembre 1945) è una cantante e attrice brasiliana.

In attività fin dal 1965, ha inciso numerosi album nel corso dei decenni: è tra le più apprezzate cantanti di musica popolare brasiliana. Cantava scalza nel periodo d'oro del tropicalismo, moderna e sensuale con l' ombelico nudo e le collanine colorate alla moda di Bahia. Cantava con voce purissima Gal Costa.

http://img713.imageshack.us/img713/7143/progettodatitecnici.jpg

[quote]Exact Audio Copy V1.0 beta 3 from 29. August 2011

EAC extraction logfile from 3. March 2012, 12:31

Gal Costa / Gal Costa

Used drive : HL-DT-STDVDRAM GSA-T40N Adapter: 0 ID: 0

Read mode : Secure
Utilize accurate stream : Yes
Defeat audio cache : Yes
Make use of C2 pointers : No

Read offset correction : 667
Overread into Lead-In and Lead-Out : No
Fill up missing offset samples with silence : Yes
Delete leading and trailing silent blocks : No
Null samples used in CRC calculations : Yes
Used interface : Native Win32 interface for Win NT & 2000
Gap handling : Appended to previous track

Used output format : User Defined Encoder
Selected bitrate : 896 kBit/s
Quality : High
Add ID3 tag : No
Command line compressor : C:\Program Files\Exact Audio Copy\FLAC\FLAC.EXE
Additional command line options : -8 -V -T "ARTIST=%artist%" -T "TITLE=%title%" -T "ALBUM=%albumtitle%" -T "DATE=%year%" -T "TRACKNUMBER=%tracknr%" -T "GENRE=%genre%" -T "COMMENT=%comment%" -T "BAND=%albuminterpret%" -T "ALBUMARTIST=%albuminterpret%"

TOC of the extracted CD

Track | Start | Length | Start sector | End sector
---------------------------------------------------------
1 | 0:00.00 | 3:13.70 | 0 | 14544
2 | 3:13.70 | 2:26.20 | 14545 | 25514
3 | 5:40.15 | 2:52.02 | 25515 | 38416
4 | 8:32.17 | 2:33.15 | 38417 | 49906
5 | 11:05.32 | 3:11.50 | 49907 | 64281
6 | 14:17.07 | 3:16.50 | 64282 | 79031
7 | 17:33.57 | 3:26.35 | 79032 | 94516
8 | 21:00.17 | 4:23.48 | 94517 | 114289
9 | 25:23.65 | 3:43.12 | 114290 | 131026
10 | 29:07.02 | 3:30.63 | 131027 | 146839
11 | 32:37.65 | 4:01.57 | 146840 | 164971
12 | 36:39.47 | 2:52.33 | 164972 | 177904


Track 1

Filename F:\MY EAC[.FLAC]\Gal Costa - Gal Costa\01 - N o Identificado.flac

Pre-gap length 0:00:02.00

Peak level 95.5 %
Extraction speed 1.4 X
Track quality 100.0 %
Test CRC 15D0CB4D
Copy CRC 15D0CB4D
Accurately ripped (confidence 1) [EFC2CA85] (AR v1)
Copy OK

Track 2

Filename F:\MY EAC[.FLAC]\Gal Costa - Gal Costa\02 - Sebastiana.flac

Peak level 97.7 %
Extraction speed 1.3 X
Track quality 100.0 %
Test CRC 7DF9B9E1
Copy CRC 7DF9B9E1
Accurately ripped (confidence 1) [DF5A7AC2] (AR v1)
Copy OK

Track 3

Filename F:\MY EAC[.FLAC]\Gal Costa - Gal Costa\03 - Lost In The Paradise.flac

Peak level 89.7 %
Extraction speed 1.4 X
Track quality 100.0 %
Test CRC 4ABB3B42
Copy CRC 4ABB3B42
Accurately ripped (confidence 1) [A3898453] (AR v1)
Copy OK

Track 4

Filename F:\MY EAC[.FLAC]\Gal Costa - Gal Costa\04 - Namorinho De Port o.flac

Peak level 97.5 %
Extraction speed 2.1 X
Track quality 100.0 %
Test CRC 418D54EF
Copy CRC 418D54EF
Accurately ripped (confidence 1) [0D78B4A5] (AR v1)
Copy OK

Track 5

Filename F:\MY EAC[.FLAC]\Gal Costa - Gal Costa\05 - Saudosismo.flac

Peak level 83.8 %
Extraction speed 2.3 X
Track quality 100.0 %
Test CRC F3DD6012
Copy CRC F3DD6012
Accurately ripped (confidence 1) [9CC55D1C] (AR v1)
Copy OK

Track 6

Filename F:\MY EAC[.FLAC]\Gal Costa - Gal Costa\06 - Se Voce Pensa.flac

Peak level 86.4 %
Extraction speed 2.4 X
Track quality 100.0 %
Test CRC 5FF5530F
Copy CRC 5FF5530F
Accurately ripped (confidence 1) [19F4B5C3] (AR v1)
Copy OK

Track 7

Filename F:\MY EAC[.FLAC]\Gal Costa - Gal Costa\07 - Vou Recome ar.flac

Peak level 92.5 %
Extraction speed 1.8 X
Track quality 99.9 %
Test CRC 325052DB
Copy CRC 325052DB
Accurately ripped (confidence 1) [61A742AA] (AR v1)
Copy OK

Track 8

Filename F:\MY EAC[.FLAC]\Gal Costa - Gal Costa\08 - Divino, Maravilhoso.flac

Peak level 83.1 %
Extraction speed 1.7 X
Track quality 100.0 %
Test CRC 7E48FA16
Copy CRC 7E48FA16
Accurately ripped (confidence 1) [A2F6B987] (AR v1)
Copy OK

Track 9

Filename F:\MY EAC[.FLAC]\Gal Costa - Gal Costa\09 - Que Pena (Ele J N o Gosta Mais De Mim).flac

Peak level 88.8 %
Extraction speed 2.0 X
Track quality 100.0 %
Test CRC 0766E7E8
Copy CRC 0766E7E8
Accurately ripped (confidence 1) [1F066A47] (AR v1)
Copy OK

Track 10

Filename F:\MY EAC[.FLAC]\Gal Costa - Gal Costa\10 - Baby.flac

Peak level 91.4 %
Extraction speed 1.8 X
Track quality 99.9 %
Test CRC 26C0BDC0
Copy CRC 26C0BDC0
Accurately ripped (confidence 1) [E1B98BB3] (AR v1)
Copy OK

Track 11

Filename F:\MY EAC[.FLAC]\Gal Costa - Gal Costa\11 - A Coisa Mais Linda Que Existe.flac

Peak level 88.7 %
Extraction speed 2.1 X
Track quality 100.0 %
Test CRC DD5F1FEA
Copy CRC DD5F1FEA
Accurately ripped (confidence 1) [8C228FA2] (AR v1)
Copy OK

Track 12

Filename F:\MY EAC[.FLAC]\Gal Costa - Gal Costa\12 - Deus o Amor.flac

Peak level 82.7 %
Extraction speed 2.2 X
Track quality 100.0 %
Test CRC 9BE6EEE6
Copy CRC 9BE6EEE6
Accurately ripped (confidence 1) [E00BF7EA] (AR v1)
Copy OK


All tracks accurately ripped

No errors occurred

End of status report

==== Log checksum AA4D171BB5D9F265A932FBB2FB566599B04BADB8B848161D1803911E6961BB11 ====
[/quote]

http://img821.imageshack.us/img821/5126/ecosos1.gif

Related torrents

Torrent NameAddedSizeSeedLeechHealth
Verified torrent
1 Year+ - in Music219.88 MB77
Verified torrent
1 Year+ - in Music320.59 MB613
1 Year+ - in Music131.03 MB00
1 Year+ - in Music223.83 MB86
1 Year+ - in Music329.5 MB1014

Comments (0 Comments)




Please login or create a FREE account to post comments

Latest Searches

| 2 chainz future 3500 | i wanna know ansolo | LethalHardcore Big Booty s 1 720p MP4 KTR | Stress Buster Courtney Taylor December 05 2016 | Adair Cherry | no nicki minaj | t A T u Gomenasai | Dominic the | legends tomorrow s02e08 | blackloads rq |