Quick Browse
Movies
TV shows
Music
Games
Applications
Anime
Other
Facebook
Advertising

Friends
Torrent Download
Movie4u
1337x.to
Torrent Downloads




Verified torrent Gal Costa-Agua Viva[EacFlacCue][TntVillage]


    Seeders : 7      Leechers : 7
Hash :584972E66C5B7E1A76239890FA7467FEAFEDC6D5
Added :1 Year+ by leoneneroVerified torrent uploader in Music - Music
Size :219.88 MB
Stream :WATCH ONLINE @ Movie4u


Gal Costa-Agua Viva[EacFlacCue][TntVillage]
Free and Fast Download with Usenet 300GB+ free







Trackers List

Tracker NameLast CheckStatusSeedersLeechers




Torrent File Content (17 files)


G4l C0st4 - 4gu4 V1v4
     00._%GalCosta%_-_%4gu4 V1v4%.nfo -
2.13 KB

     01 - 0lh0s V3rd3s.flac -
20.81 MB

     02 - F0lh3t1m.flac -
21.95 MB

     03 - D3 0nd3 V3m 0 B4140.flac -
21.32 MB

     04 - 0 B3m d0 M4r.flac -
8.16 MB

     05 - M43.flac -
21.94 MB

     06 - V1d4 d3 4rt1st4.flac -
21.5 MB

     07 - P4ul4 3 B3b3t0.flac -
13.28 MB

     08 - 4 Mulh3r.flac -
12.54 MB

     09 - P01s 3.flac -
8.59 MB

     10 - Qu4l 3 B414n4.flac -
19.45 MB

     11 - C4d3.flac -
22.93 MB

     12 - 0 G0st0 d0 4m0r.flac -
27.37 MB

     folder.jpg -
23.49 KB

     G4l C0st4 - 4gu4 V1v4.cue -
1.25 KB

     G4l C0st4 - 4gu4 V1v4.log -
11.1 KB

     G4l C0st4 - 4gu4 V1v4.m3u -
273 bytes



Description



http://img198.imageshack.us/img198/2434/progettocover.jpg


http://img200.imageshack.us/img200/3039/dsc00646sa.jpg

http://img825.imageshack.us/img825/627/dsc00647g.jpg

http://img33.imageshack.us/img33/5921/dsc00645.gif


Título Original: Agua Viva
Gênero: MPB
Intérprete: Gal Costa
Ano de Lançamento: 1978
Gravadora: Philips/Phonogram
Time: 34:53

Credits

Bass – Jamil Joanes (tracks: 1, 6, 8, 10, 12)
Co-producer – Lenia Grillo
Drums – Paulinho Braga (tracks: 2, 3, 5, 8, 10, 11, 12)
Engineer – Ary Carvalhaes, Paulinho Chocolate
Guitar – Perinho Albuquerque (tracks: 1, 2, 8, 10, 11, 12)
Mixed By – Luigi Hoffer
Percussion – Bira Da Silva (tracks: 2, 6, 8, 10, 11)
Piano – Tomás Improta* (tracks: 1, 4, 8, 10), Wagner Tiso (tracks: 2, 6, 7)
Producer – Perinho Albuquerque

http://img98.imageshack.us/img98/9113/progettotracklist.jpg

1 Olhos Verdes
Percussion – Marçal, Doutor, Geraldo, Luna, Ney
Drums – Enéas Costa
Written-By – Vicente Paiva
3:09

2 Folhetim
Arranged By – Perinho Albuquerque, Wagner Tiso
Saxophone – Jorginho
Bass – Luizão
Written-By – Chico Buarque
3:28

3 De Onde Vem O Baião
Bass – Moacyr Albuquerque
Accordion – Sivuca
Written-By – Gilberto Gil
Guitar – Perinho SantanaPercussion – Charles (3)
Piano – Perna Fróes*
3:06

4 O Bem Do Mar
Written-By – Dorival Caymmi
Harp – Wanda Eichbaver
1:40

5 Mãe
Guitar – Perinho Santana
Piano – Perna Fróes
Bass – Moacyr Albuquerque
Written-By – Caetano Veloso
3:30

6 Vida De Artista
Guitar – Toninho Horta
Written-By – Abel Silva, Sueli Costa
3:22

7 Paula E Bebeto
Written-By – Milton Nascimento
2:05

8 A Mulher 1:54

9 Pois É
Written-By – Tom Jobim, Chico Buarque
Harp – Wanda Eichbaver
1:46

10 Qual É, Baiana?
Written-By – Moacyr Albuquerque
2:55

11 Cadê
Synthesizer – Marcos Resende
Written-By – Milton Nascimento, Ruy Guerra
3:57

12 O Gosto Do Amor
Featuring, Written-By – Luiz Gonzaga Jnr
Accordion – Sivuca
3:57

http://img210.imageshack.us/img210/734/progettorecensione.jpg

Fu la prima volta, dopo dieci anni che cantó nuove composizioni di Chico Buarque, questo dovuto all'allontanamento dello stesso, a causa dell'esilio in Inghileterra. Ricorda Gal che fu divertentissimo cantare FOLHETIM e che con immenso piacere, oltre ad arrivare con la stessa musica al top delle classifiche nazionali, la canzone prese parte alla colonna sonora di una famosa Novelas. Trovate nel cd anche la famosa VIDA DE ARTISTA, che il suo amico Caetano adorò, canzone di Sueli Costa e Abel Silva. Gonzaguinha accompagna nell'ultima fascia la cantante, a dimostrazione del capolavoro in cui tutti hanno creduto. CURIOSITÀ: L'idea della copertina, fu della stessa cantante che voleva comparare l'uscita dall'acqua all'uscita dell'utero materno. L'ellepi originale le valsero il suo primo disco d'oro. Buon ascolto

http://img121.imageshack.us/img121/5530/progettodescrizione.jpg


Gal Costa
Nata a Salvador de Bahia con il nome di Maria de Graca Costa Penna Burgos, Gal Costa e' cresciuta ascoltando canzoni alla radio, classici brasiliani, rock e jazz, tra cui Cole Porter e Stevie Wonder, ma non solo: "Ho sempre amato, dice, le grandi cantanti americane come Billie Holiday, Sarah Vaughan e Ella Fitzgerald". Trovo' il primo lavoro in un negozio di dischi, finche' la passione per la musica trasformo' sogni e ambizioni in realta' . Sono 20 gli album che scandiscono le tappe di una carriera maturata nel milieu culturale di Bahia, a fianco di artisti quali Gilberto Gil, Joao Gilberto e Caetano Veloso, suo maestro. Proprio da questo ambiente, dall' impegno civile, oltre che musicale, di questo gruppo, un quarto di secolo fa nacque il "Tropicalismo", un movimento, di cui Gal Costa fu tra le maggiori esponenti, che si proponeva il recupero delle piu' pure tradizioni della canzone brasiliana, arricchite di testi in grado di raccontare i drammi del Paese. La "militanza" costo' a molti suoi sostenitori, tra cui Gil e Veloso, il carcere e l' esilio. Oggi popolarissima in tutto il mondo, Gal Costa si affaccio' nelle vetrine musicali nel ' 67 con il disco "Domingo", al quale segui' una vasta produzione che annovera, tra gli altri, successi come "Agua viva", "Bem Bom", "Baby Gal". Nel 1992 impresse un memorabile sigillo alla sua notorieta' alla Conferenza di EcoRio, cantando in duo con Placido Domingo. Nella sua voce vive l' anima del Brasile, il respiro profondo di un Paese dove la dolce sensualita' delle melodie affonda le radici nella sofferenza. Gal Costa non e' soltanto una cantante, e' una grande interprete dei sentimenti di un popolo, dei suoi ritmi, della sua poesia e delle sue contraddizioni che vibrano nel dolore dell' ingiustizia. La "Tigre di Bahia", come e' stata definita.
http://img713.imageshack.us/img713/7143/progettodatitecnici.jpg

Exact Audio Copy V1.0 beta 1 from 15. November 2010

EAC extraction logfile from 19. October 2011, 15:19

Gal Costa / Água Viva

Used drive : HL-DT-STDVDRAM GSA-T40N Adapter: 0 ID: 0

Read mode : Secure
Utilize accurate stream : Yes
Defeat audio cache : No
Make use of C2 pointers : Yes

Read offset correction : 667
Overread into Lead-In and Lead-Out : No
Fill up missing offset samples with silence : Yes
Delete leading and trailing silent blocks : No
Null samples used in CRC calculations : No
Used interface : Native Win32 interface for Win NT & 2000
Gap handling : Not detected, thus appended to previous track

Used output format : User Defined Encoder
Selected bitrate : 768 kBit/s
Quality : High
Add ID3 tag : No
Command line compressor : c:\Users\leomarco\Contacts\Desktop\Exact Audio Copy\FLAC\FLAC.EXE
Additional command line options : -6 -V -T "ARTIST=%a" -T "TITLE=%t" -T "ALBUM=%g" -T "DATE=%y" -T "TRACKNUMBER=%n" -T "GENRE=%m" -T "COMMENT=%e" %j--picture="%i"%j %s -o %d


TOC of the extracted CD

Track | Start | Length | Start sector | End sector
---------------------------------------------------------
1 | 0:00.00 | 3:13.05 | 0 | 14479
2 | 3:13.05 | 3:31.15 | 14480 | 30319
3 | 6:44.20 | 3:09.05 | 30320 | 44499
4 | 9:53.25 | 1:41.55 | 44500 | 52129
5 | 11:35.05 | 3:34.47 | 52130 | 68226
6 | 15:09.52 | 3:25.08 | 68227 | 83609
7 | 18:34.60 | 2:07.37 | 83610 | 93171
8 | 20:42.22 | 1:55.28 | 93172 | 101824
9 | 22:37.50 | 1:49.02 | 101825 | 110001
10 | 24:26.52 | 2:58.20 | 110002 | 123371
11 | 27:24.72 | 3:26.33 | 123372 | 138854
12 | 30:51.30 | 4:02.25 | 138855 | 157029


Track 1

Filename C:\Users\leomarco\Contacts\Desktop\01 - Olhos Verdes.Flac

Peak level 96.6 %
Extraction speed 8.5 X
Track quality 100.0 %
Test CRC FE8578CD
Copy CRC FE8578CD
Track not present in AccurateRip database
Copy OK

Track 2

Filename C:\Users\leomarco\Contacts\Desktop\02 - Folhetim.Flac

Peak level 84.6 %
Extraction speed 9.5 X
Track quality 100.0 %
Test CRC BD427D49
Copy CRC BD427D49
Track not present in AccurateRip database
Copy OK

Track 3

Filename C:\Users\leomarco\Contacts\Desktop\03 - De Onde Vem o Baião.Flac

Peak level 93.1 %
Extraction speed 10.9 X
Track quality 100.0 %
Test CRC 544B7800
Copy CRC 544B7800
Track not present in AccurateRip database
Copy OK

Track 4

Filename C:\Users\leomarco\Contacts\Desktop\04 - O Bem do Mar.Flac

Peak level 66.6 %
Extraction speed 11.4 X
Track quality 100.0 %
Test CRC 4EE4015E
Copy CRC 4EE4015E
Track not present in AccurateRip database
Copy OK

Track 5

Filename C:\Users\leomarco\Contacts\Desktop\05 - Mãe.Flac

Peak level 94.6 %
Extraction speed 12.1 X
Track quality 100.0 %
Test CRC 7D395A4F
Copy CRC 7D395A4F
Track not present in AccurateRip database
Copy OK

Track 6

Filename C:\Users\leomarco\Contacts\Desktop\06 - Vida de Artista.Flac

Peak level 88.4 %
Extraction speed 12.0 X
Track quality 100.0 %
Test CRC 7AD3BBA7
Copy CRC 7AD3BBA7
Track not present in AccurateRip database
Copy OK

Track 7

Filename C:\Users\leomarco\Contacts\Desktop\07 - Paula e Bebeto.Flac

Peak level 93.4 %
Extraction speed 11.8 X
Track quality 99.8 %
Test CRC 2EF3C459
Copy CRC 2EF3C459
Track not present in AccurateRip database
Copy OK

Track 8

Filename C:\Users\leomarco\Contacts\Desktop\08 - A Mulher.Flac

Peak level 94.9 %
Extraction speed 11.9 X
Track quality 99.8 %
Test CRC CDA66B2C
Copy CRC CDA66B2C
Track not present in AccurateRip database
Copy OK

Track 9

Filename C:\Users\leomarco\Contacts\Desktop\09 - Pois É.Flac

Peak level 64.9 %
Extraction speed 14.0 X
Track quality 100.0 %
Test CRC ED82F054
Copy CRC ED82F054
Track not present in AccurateRip database
Copy OK

Track 10

Filename C:\Users\leomarco\Contacts\Desktop\10 - Qual É Baiana.Flac

Peak level 89.9 %
Extraction speed 14.5 X
Track quality 100.0 %
Test CRC E40386CF
Copy CRC E40386CF
Track not present in AccurateRip database
Copy OK

Track 11

Filename C:\Users\leomarco\Contacts\Desktop\11 - Cadê.Flac

Peak level 92.8 %
Extraction speed 14.1 X
Track quality 100.0 %
Test CRC 41ED3F34
Copy CRC 41ED3F34
Track not present in AccurateRip database
Copy OK

Track 12

Filename C:\Users\leomarco\Contacts\Desktop\12 - O Gosto do Amor.Flac

Peak level 88.2 %
Extraction speed 15.8 X
Track quality 100.0 %
Test CRC C993E59B
Copy CRC C993E59B
Track not present in AccurateRip database
Copy OK


None of the tracks are present in the AccurateRip database

No errors occurred

End of status report

==== Log checksum 9157A09EF55F97FD2F256B952820C7401BABAA8E2D798E28C96884B6A0B53E17 ====
http://img521.imageshack.us/img521/763/progettobandaeseed.jpg

Per i primi 10: 24 su 24:80/90 Kb/s

Related torrents

Torrent NameAddedSizeSeedLeechHealth
Verified torrent
1 Year+ - in Music320.59 MB613
Verified torrent
1 Year+ - in Music243.82 MB1715
1 Year+ - in Music223.83 MB86
1 Year+ - in Other137.36 MB00
1 Year+ - in Music329.5 MB1014

Comments (0 Comments)




Please login or create a FREE account to post comments

Latest Searches

| david icke awaken wembley 2014 | Mothers Day 2016 1080p BluRay x264 DTS JYK | ultimate christmas cd | Michael Jackson enough | starboy f | and off you go | hush deep purple | ancient treasure | Friday Night Lights Season 1 rar | enticing emily |