Quick Browse
Movies
TV shows
Music
Games
Applications
Anime
Other

Latest Articles

Friends
Torrents.me
Torrent Download
Movie4u
1337x
RARBG
Full Movies
Torrent Downloads

Game of Thrones - Il Trono di Spade S05e08 [Mux - 720p - H264 - Ita Eng Ac3 5 1 DD - Sub Ita Eng] DLMux by NovaRip


    Seeders : 1      Leechers : 2

Warning! Do not Download Torrents Without a VPN!
Your IP Address is .   And Location is
Your Internet Provider and Government can track your torrent Activity!  Hide your IP ADDRESS with a VPN!
We Strongly Recommend Using CyberGhost VPN to Anonymize your Torrenting.

Note :

Please Update (Trackers Info) Before Downloading Torrents to See Updated Seeders And Leechers for Batter Download Speed.

Trackers List

Tracker NameLast CheckStatusSeedersLeechers
udp://tracker.openbittorrent.com:80/announce1 Year+success12
udp://tracker.coppersurfer.tk:80/announce1 Year+success12
udp://tracker.coppersurfer.tk:801 Year+success12
http://tracker.windsormetalbattery.com/announce1 Year+success00
http://tracker.winglai.com/announce1 Year+success00
http://torrent.gresille.org/announce1 Year+success00
http://bigfoot1942.sektori.org:6969/announce1 Year+success00
http://tracker.nwps.ws:6969/announce1 Year+success00
http://tracker.trackerfix.com/announce1 Year+success00
udp://9.rarbg.com:2710/announce1 Year+success00
udp://open.demonii.com:1337/announce1 Year+success00




Torrent File Content (1 file)


     Game.Of.Thrones.5x08.Aspra.Dimora.ITA-ENG.720p.DLMux.DD5.1.h264-NovaRip.mkv -
1.99 GB



Description



 							25fps 720p
AUDIO 5.1 ITA ENG DD 384kbps
SUB ITA ENG

[SIZE=16]IL TRONO DI SPADE - STAGIONE 5 - EPISODIO 8
GAME OF THRONES - SEASON 5 - EPISODE 8


REPORT

[spoiler="Click here to read the report">General
Format : Matroska
Format version : Version 2
File size : 1.75 GiB
Duration : 50mn 1s
Overall bit rate : 4 997 Kbps
Encoded date : UTC 2015-04-25 13:49:57
Writing application : mkvmerge v5.8.0 ('No Sleep / Pillow') built on Sep 2 2012 13:57:39
Writing library : libebml v1.2.3 + libmatroska v1.3.0

Video
ID : 1
Format : AVC
Format/Info : Advanced Video Codec
Format profile : [email protected]
Format settings, CABAC : No
Format settings, ReFrames : 2 frames
Codec ID : V_MPEG4/ISO/AVC
Duration : 50mn 1s
Bit rate : 4 130 Kbps
Width : 1 280 pixels
Height : 718 pixels
Display aspect ratio : 16:9
Frame rate : 25.000 fps
Color space : YUV
Chroma subsampling : 4:2:0
Bit depth : 8 bits
Scan type : Progressive
Bits/(Pixel*Frame) : 0.180
Stream size : 1.44 GiB (83%)
Language : English
Default : Yes
Forced : Yes
Color primaries : BT.709-5, BT.1361, IEC 61966-2-4, SMPTE RP177
Transfer characteristics : BT.709-5, BT.1361
Matrix coefficients : BT.709-5, BT.1361, IEC 61966-2-4 709, SMPTE RP177

Audio #1
ID : 2
Format : AC-3
Format/Info : Audio Coding 3
Mode extension : CM (complete main)
Format settings, Endianness : Big
Codec ID : A_AC3
Duration : 50mn 1s
Bit rate mode : Constant
Bit rate : 384 Kbps
Channel(s) : 6 channels
Channel positions : Front: L C R, Side: L R, LFE
Sampling rate : 48.0 KHz
Bit depth : 16 bits
Compression mode : Lossy
Stream size : 137 MiB (8%)
Title : ITA
Language : Italian
Default : Yes
Forced : Yes

Audio #2
ID : 3
Format : AC-3
Format/Info : Audio Coding 3
Mode extension : CM (complete main)
Format settings, Endianness : Big
Codec ID : A_AC3
Duration : 50mn 1s
Bit rate mode : Constant
Bit rate : 384 Kbps
Channel(s) : 6 channels
Channel positions : Front: L C R, Side: L R, LFE
Sampling rate : 48.0 KHz
Bit depth : 16 bits
Compression mode : Lossy
Stream size : 137 MiB (8%)
Title : ENG
Language : English
Default : No
Forced : No

Text #1
ID : 4
Format : UTF-8
Codec ID : S_TEXT/UTF8
Codec ID/Info : UTF-8 Plain Text
Title : ITA - Forced
Language : Italian
Default : Yes
Forced : Yes

Text #2
ID : 5
Format : UTF-8
Codec ID : S_TEXT/UTF8
Codec ID/Info : UTF-8 Plain Text
Title : ITA
Language : Italian
Default : No
Forced : No

Text #3
ID : 6
Format : UTF-8
Codec ID : S_TEXT/UTF8
Codec ID/Info : UTF-8 Plain Text
Title : ENG
Language : English
Default : No
Forced : No

[font=Impact]TRAMA[/font]

Ad Approdo del Re, la regina reggente Cersei Lannister tenta di mantenere solido il proprio potere, il quale รจ minacciato da un nuovo ordine religioso, in particolare dall'enigmatica figura dell'Alto Passero. Jaime Lannister parte per una pericolosa missione a Dorne, mentre suo fratello Tyrion Lannister vaga per il continente Orientale in cerca di uno scopo. Al Castello Nero, Jon Snow cerca di portare equilibrio tra re Stannis Baratheon e i Bruti, mentre a Grande Inverno governano i Bolton. Petyr Baelish lascia la Valle di Arryn per dedicarsi al suo nuovo piano con Sansa Stark, ora sua protetta sotto il falso nome di Alayne Stone. Arrivata a Braavos, Arya Stark cerca di diventare un'assassina, mentre a Meereen, Daenerys Targaryen affronta le conseguenze delle sue conquiste senza il consiglio di ser Jorah Mormont.

[font=Verdana]THANKS TO NOVARIP[/font]

Related torrents

Torrent NameAddedSizeSeedLeechHealth
Verified torrent
1 Year+ - in TV shows4.91 GB80
Verified torrent
1 Year+ - in TV shows9.66 GB93
Verified torrent
1 Year+ - in TV shows5.04 GB80
Verified torrent
1 Year+ - in TV shows4.89 GB130
1 Year+ - in TV shows1.06 GB00
1 Year+ - in TV shows1.06 GB00

Note :

Feel free to post any comments about this torrent, including links to Subtitle, samples, screenshots, or any other relevant information. Please Dont Download anything from Comments, And Dont Post Links to Streaming Sites like Fmovies, Xmovies8, 123Movies, GoMovies, CMovieshd, Solarmovie, Watchfree, Putlockers, GoStream, m4ufree etc.

Comments (0 Comments)




Please login or create a FREE account to post comments

Latest Searches

| OptiCut Pro PP 5 22d rar | jeremih 2010 all about you | series poker pc | king f the hill | rush 3 dual hindi | Megan rain riding | yes indeed lil baby mp3 | Shut up kiss | alina li daddy s | cronicas star wars |