Quick Browse
Movies
TV shows
Music
Games
Applications
Anime
Other

Donate and Support

Friends
Torrents.me
Torrent Download
Free Movies
1337x
RARBG
Torrent Downloads

Verified torrent Game of Thrones S07E01 720p HDTV x264-AVS


    Seeders : 0      Leechers : 0
Hash :5B9515214F96789436BAA35BC152CF035A19FF74
Added :2 months ago in TV shows
Size :961.07 MB
Stream :Watch Full Movies Online @ Movie4u
Share :


Game of Thrones S07E01 720p HDTV x264-AVS
Anonymous and free Direct Download







Warning! Do not Download Torrents Without a VPN!
Your IP Address is .   And Location is
Your Internet Provider and Government can track your torrent Activity!  Hide your IP ADDRESS with a VPN!
We Strongly Recommend Using SpyOFF Torrent VPN to Anonymize your Torrenting. It's FREE For 15 Days!

Note :

Please Update (Trackers Info) Before Downloading Torrents to See Updated Seeders And Leechers for Batter Download Speed.

Trackers List

Tracker NameLast CheckStatusSeedersLeechers




Torrent File Content (2 files)


Game.of.Thrones.S07E01.720p.HDTV.x264-AVS
     Game.of.Thrones.S07E01.720p.HDTV.x264-AVS.mkv -
961.07 MB

     game.of.thrones.s07e01.720p.hdtv.x264-avs.nfo -
63 bytes



Description



Game.of.Thrones.S07E01.720p.HDTV.x264-AVS



Complete name : Game.of.Thrones.S07E01.720p.HDTV.x264-AVS.mkv
Format : Matroska
Format version : Version 4 / Version 2
File size : 961 MiB
Duration : 58 min 33 s
Overall bit rate : 2 295 kb/s
Encoded date : UTC 2017-07-17 01:59:57
Writing application : FastLE v3.0.0 - AVS
Writing library : libx264 + libebml + libmatroska + libfastrar

Video
ID : 1
Format : AVC
Format/Info : Advanced Video Codec
Format profile : [email protected]/* */
Format settings, CABAC : Yes
Format settings, ReFrames : 5 frames
Codec ID : V_MPEG4/ISO/AVC
Duration : 58 min 33 s
Bit rate : 1 865 kb/s
Width : 1 280 pixels
Height : 718 pixels
Display aspect ratio : 16:9
Frame rate mode : Constant
Frame rate : 23.976 (24000/1001) FPS
Color space : YUV
Chroma subsampling : 4:2:0
Bit depth : 8 bits
Scan type : Progressive
Bits/(Pixel*Frame) : 0.085
Stream size : 781 MiB (81%)
Writing library : x264 core 152 r2851 ba24899
Encoding settings : cabac=1 / ref=5 / deblock=1:0:0 / analyse=0x3:0x113 / me=hex / subme=8 / psy=1 / psy_rd=1.00:0.00 / mixed_ref=1 / me_range=16 / chroma_me=1 / trellis=2 / 8x8dct=1 / cqm=0 / deadzone=21,11 / fast_pskip=1 / chroma_qp_offset=-2 / threads=22 / lookahead_threads=3 / sliced_threads=0 / nr=0 / decimate=1 / interlaced=0 / bluray_compat=0 / constrained_intra=0 / bframes=3 / b_pyramid=2 / b_adapt=1 / b_bias=0 / direct=3 / weightb=1 / open_gop=0 / weightp=2 / keyint=250 / keyint_min=23 / scenecut=40 / intra_refresh=0 / rc_lookahead=50 / rc=crf / mbtree=1 / crf=18.0 / qcomp=0.60 / qpmin=0 / qpmax=69 / qpstep=4 / ip_ratio=1.40 / aq=1:1.00
Default : Yes
Forced : No
Color range : Limited
Matrix coefficients : BT.709

Audio
ID : 2
Format : AC-3
Format/Info : Audio Coding 3
Format settings, Endianness : Big
Codec ID : A_AC3
Duration : 58 min 33 s
Bit rate mode : Constant
Bit rate : 384 kb/s
Channel(s) : 6 channels
Channel positions : Front: L C R, Side: L R, LFE
Sampling rate : 48.0 kHz
Frame rate : 31.250 FPS (1536 spf)
Bit depth : 16 bits
Compression mode : Lossy
Stream size : 161 MiB (17%)
Service kind : Complete Main
Default : Yes
Forced : No






Click To View Screenshot

Click To View Screenshot

Click To View Screenshot


Related torrents

Torrent NameAddedSizeSeedLeechHealth
Verified torrent
2 months ago - in TV shows961.07 MB00
Verified torrent
2 months ago - in TV shows1.25 GB00
1 Year+ - in TV shows1.14 GB281
Verified torrent
1 Year+ - in TV shows1.12 GB23
Verified torrent
1 Year+ - in TV shows1.12 GB172
1 Comments
1 Good
Verified torrent
1 Year+ - in TV shows1.12 GB40915

Comments (0 Comments)




Please login or create a FREE account to post comments

Latest Searches

| 50plusmilfs nicky white year old divorcee stud | Ice age continental drift dual audio 720p | Cherokee Big Phat Onion Booty 1 | Corel WinDVD Pro 11 6 1 4 Retail Key Core | stay mikki | mi 0 | Sleepy Hollow S03E13 HDTV x264 KILLERSettv | Teradise Island Fever 4 | guns roses 2016 | gnash i hate u i love j |