Quick Browse
Movies
TV shows
Music
Games
Applications
Anime
Other
Facebook
Advertising

Friends
Torrent Download
Movie4u
1337x.to
Torrent Downloads




Verified torrent Gangster No1 [2000] [DVD] [AC3] [Hannspree]


    Seeders : 1      Leechers : 11
Hash :2DE5EC5D01BAA767A0C5BFD942FD7BBB3DC30B61
Added :1 Year+ by HannspreeVerified torrent uploader in Movies
Size :2.16 GB
Stream :WATCH ONLINE @ Movie4u


Gangster No1 [2000] [DVD] [AC3] [Hannspree]
Free and Fast Download with Usenet 300GB+ free







Trackers List

Tracker NameLast CheckStatusSeedersLeechers




Torrent File Content (12 files)


Gangster No 1
    Gangster No 1 - Covers
          Gangster No 1 - Cover.jpg -
156.47 KB

          Gangster No 1 - Disc.jpg -
238.18 KB

    Gangster No 1 - DVD
          VIDEO_TS/VIDEO_TS.BUP -
12 KB

          VIDEO_TS/VIDEO_TS.IFO -
12 KB

          VIDEO_TS/VIDEO_TS.VOB -
58 KB

          VIDEO_TS/VTS_01_0.BUP -
74 KB

          VIDEO_TS/VTS_01_0.IFO -
74 KB

          VIDEO_TS/VTS_01_0.VOB -
58 KB

          VIDEO_TS/VTS_01_1.VOB -
1023.97 MB

          VIDEO_TS/VTS_01_2.VOB -
1023.97 MB

          VIDEO_TS/VTS_01_3.VOB -
167.76 MB

     Gangster No 1.NFO -
6.66 KB



Description



=========================================================================================================================
[ Another free and high quality, ready to burn DVD - I will be adding new torrents on a daily basis - Remember to seed ]
=========================================================================================================================
MOVIE TITLE: Gangster No1
LANGUAGE: English
MOVIE SUBS: No - (subtitles if/when required)
BURN TESTED: Yes
FORMAT: Pal
GENRE: Crime | Drama | Thriller
RUNTIME: 104 Minutes
YEAR: 2000
IMDB LINK: http://www.imdb.com/title/tt0210065/
=========================================================================================================================
GENERAL MOVIE DESC:

A middle-aged crime boss smugly reflects back from 1999, narrating the brutality which made him triumphant and feared.
As an unnamed young hood in Swinging 60's London, he aped his mod boss Freddie Mays, and seemed to do anything
for him. But his narration exposes all-consuming envy of Freddie's supremacy, and especially his tall bird.
The baby shark develops his viciousness and backstabbing, scheming to be Gangster No. 1.
=========================================================================================================================
GENERAL MOVIE SPECS:

Complete name : Gangster No1
Format : MPEG-PS
File size : 2.16 GB
Duration : 104 Minutes
Overall bit rate : 3 006 Kbps

VIDEO:
ID : 224 (0xE0)
Format : MPEG Video
Format version : Version 2
Format profile : [email protected]
Format settings, BVOP : Yes
Format settings, Matrix : Default
Duration : 104 Minutes
Bit rate mode : Variable
Bit rate : 2 498 Kbps
Nominal bit rate : 9 352 Kbps
Width : 720 pixels
Height : 576 pixels
Display aspect ratio : 16:9
Frame rate : 24.000 fps
Standard : PAL
Color space : YUV
Chroma subsampling : 4:2:0
Bit depth : 8 bits
Scan type : Progressive
Scan order : 2:2:2:2:2:2:2:2:2:2:2:3 Pulldown
Bits/(Pixel*Frame) : 0.251
Stream size : 851 MiB (83%)

AUDIO:
ID : 128 (0x80)
Format : AC-3
Format/Info : Audio Coding 3
Mode extension : CM (complete main)
Duration : 104 Minutes
Bit rate mode : Constant
Bit rate : 448 Kbps
Channel(s) : 6 channels
Channel positions : Front: L C R, Side: L R, LFE
Sampling rate : 48.0 KHz
Stream size : 153 MiB (15%)
=========================================================================================================================

Related torrents

Torrent NameAddedSizeSeedLeechHealth
Verified torrent
1 Year+ - in Movies1.3 GB12
1 Year+ - in Movies1.46 GB111
Verified torrent
1 Year+ - in Movies1.51 GB14
Verified torrent
1 Year+ - in Movies1.89 GB111
Verified torrent
1 Year+ - in Movies1.67 GB02

Comments (0 Comments)




Please login or create a FREE account to post comments

Latest Searches

| Ariella Ferrera And Vanessa | 12 Monkeys WEB DL x264 FUM | new 08 december | Pornstars Like It Big 18 2013 DVDRip | Candlebox Disappearing In Airports 2016 ak320 | dj babu beat tape | pink floyd discography 1965 2016 mp3 | jeff tom | Drillbit Taylor Extended Survival Edition | l 21 savage |