Quick Browse
Movies
TV shows
Music
Games
Applications
Anime
Other
Facebook
Advertising

Friends
Torrent Download
Movie4u
1337x.to
Torrent Downloads




Verified torrent Get Him To The Greek (2010) CAM XViD IMAGiNE - {XtremeTorrents}


    Seeders : 23      Leechers : 4

Trackers List

Tracker NameLast CheckStatusSeedersLeechers




Torrent File Content (54 files)


Get Him To The Greek CAM XViD - IMAGiNE
     Get Him To The Greek CAM XViD - IMAGiNE.r26 -
14.31 MB

     Get Him To The Greek CAM XViD - IMAGiNE.r00 -
14.31 MB

     Get Him To The Greek CAM XViD - IMAGiNE.r01 -
14.31 MB

     Get Him To The Greek CAM XViD - IMAGiNE.r02 -
14.31 MB

     Get Him To The Greek CAM XViD - IMAGiNE.r03 -
14.31 MB

     Get Him To The Greek CAM XViD - IMAGiNE.r04 -
14.31 MB

     Get Him To The Greek CAM XViD - IMAGiNE.r05 -
14.31 MB

     Get Him To The Greek CAM XViD - IMAGiNE.r06 -
14.31 MB

     Get Him To The Greek CAM XViD - IMAGiNE.r07 -
14.31 MB

     Get Him To The Greek CAM XViD - IMAGiNE.r08 -
14.31 MB

     Get Him To The Greek CAM XViD - IMAGiNE.r09 -
14.31 MB

     Get Him To The Greek CAM XViD - IMAGiNE.r10 -
14.31 MB

     Get Him To The Greek CAM XViD - IMAGiNE.r11 -
14.31 MB

     Get Him To The Greek CAM XViD - IMAGiNE.r12 -
14.31 MB

     Get Him To The Greek CAM XViD - IMAGiNE.r13 -
14.31 MB

     Get Him To The Greek CAM XViD - IMAGiNE.r14 -
14.31 MB

     Get Him To The Greek CAM XViD - IMAGiNE.r15 -
14.31 MB

     Get Him To The Greek CAM XViD - IMAGiNE.r16 -
14.31 MB

     Get Him To The Greek CAM XViD - IMAGiNE.r17 -
14.31 MB

     Get Him To The Greek CAM XViD - IMAGiNE.r18 -
14.31 MB

     Get Him To The Greek CAM XViD - IMAGiNE.r19 -
14.31 MB

     Get Him To The Greek CAM XViD - IMAGiNE.r20 -
14.31 MB

     Get Him To The Greek CAM XViD - IMAGiNE.r21 -
14.31 MB

     Get Him To The Greek CAM XViD - IMAGiNE.r22 -
14.31 MB

     Get Him To The Greek CAM XViD - IMAGiNE.r23 -
14.31 MB

     Get Him To The Greek CAM XViD - IMAGiNE.r24 -
14.31 MB

     Get Him To The Greek CAM XViD - IMAGiNE.r25 -
14.31 MB

     Get Him To The Greek CAM XViD - IMAGiNE.r39 -
14.31 MB

     Get Him To The Greek CAM XViD - IMAGiNE.r27 -
14.31 MB

     Get Him To The Greek CAM XViD - IMAGiNE.r28 -
14.31 MB

     Get Him To The Greek CAM XViD - IMAGiNE.r29 -
14.31 MB

     Get Him To The Greek CAM XViD - IMAGiNE.r30 -
14.31 MB

     Get Him To The Greek CAM XViD - IMAGiNE.r31 -
14.31 MB

     Get Him To The Greek CAM XViD - IMAGiNE.r32 -
14.31 MB

     Get Him To The Greek CAM XViD - IMAGiNE.r33 -
14.31 MB

     Get Him To The Greek CAM XViD - IMAGiNE.r34 -
14.31 MB

     Get Him To The Greek CAM XViD - IMAGiNE.r35 -
14.31 MB

     Get Him To The Greek CAM XViD - IMAGiNE.r36 -
14.31 MB

     Get Him To The Greek CAM XViD - IMAGiNE.r37 -
14.31 MB

     Get Him To The Greek CAM XViD - IMAGiNE.r38 -
14.31 MB

     Get Him To The Greek CAM XViD - IMAGiNE.r46 -
14.31 MB

     Get Him To The Greek CAM XViD - IMAGiNE.r40 -
14.31 MB

     Get Him To The Greek CAM XViD - IMAGiNE.r41 -
14.31 MB

     Get Him To The Greek CAM XViD - IMAGiNE.r42 -
14.31 MB

     Get Him To The Greek CAM XViD - IMAGiNE.r43 -
14.31 MB

     Get Him To The Greek CAM XViD - IMAGiNE.r44 -
14.31 MB

     Get Him To The Greek CAM XViD - IMAGiNE.r45 -
14.31 MB

     Get Him To The Greek CAM XViD - IMAGiNE.rar -
14.31 MB

     Get Him To The Greek CAM XViD - IMAGiNE.r47 -
14.31 MB

     Get Him To The Greek CAM XViD - SAMPLE.avi -
8.2 MB



Description



Get Him To The Greek CAM XViD - IMAGiNE
************************************************************************************************************************

http://img204.imageshack.us/img204/1963/24320709.png


Ripper ...........: IMAGiNE IMDB Rating.......:7.1/10
Video Codec.......: XVID Release Date......:08/06/10
Audio Codec.......:MP3 Theatre Date......:04/06/10
Audio Bitrate.....:128 Runtime.......:1h 37mn
Subtitles.........:NIL Language..........:ENGLISH
Resolution...... 640 x 304 IMDb URL..........:http://www.imdb.com/title/tt1226229/


DETAILS:

Video
ID : 0
Format : MPEG-4 Visual
Format profile : Advanced [email protected]
Format settings, BVOP : Yes
Format settings, QPel : No
Format settings, GMC : No warppoints
Format settings, Matrix : Default (MPEG)
Muxing mode : Packed bitstream
Codec ID : XVID
Codec ID/Hint : XviD
Duration : 1h 37mn
Bit rate : 876 Kbps
Width : 640 pixels
Height : 304 pixels
Display aspect ratio : 2.2
Frame rate : 25.000 fps
Resolution : 24 bits
Colorimetry : 4:2:0
Scan type : Progressive
Bits/(Pixel*Frame) : 0.180
Stream size : 609 MiB (86%)
Writing library : XviD 1.2.1 (UTC 2008-12-04)

Audio
ID : 1
Format : MPEG Audio
Format version : Version 1
Format profile : Layer 3
Codec ID : 55
Codec ID/Hint : MP3
Duration : 1h 37mn
Bit rate mode : Constant
Bit rate : 128 Kbps
Channel(s) : 2 channels
Sampling rate : 44.1 KHz
Resolution : 16 bits
Stream size : 88.9 MiB (13%)
Alignment : Split accross interleaves
Interleave, duration : 40 ms (1.00 video frame)
Interleave, preload duration : 500 ms

Related torrents

Torrent NameAddedSizeSeedLeechHealth
1 Year+ - in Movies1.11 GB19332
1 Year+ - in Movies806.54 MB986
1 Year+ - in Movies692.58 MB162
1 Year+ - in Movies692.58 MB198
1 Year+ - in Movies692.58 MB10915

Comments (2 Comments)




38DMILF
» Downloaded this torrent Downloaded this torrent » Voted Bad Voted Bad for this torrent for this torrent
+1

Added 1 Year+
to blurry
XtremeTorrents
» Torrent Uploader Torrent Uploader
+1

Added 1 Year+
There will be a better copy come along soon, Don't worry! :)
Please login or create a FREE account to post comments

Latest Searches

| Kelly over and over | The Girl at the End of the World Richard Levesque | Jordan West 1080p | 2 face idle | Inflagranti Fick die German | maejor and ali | its not you its me lily allen | young buckthe game | new jock | dj quik dollaz sense |