Quick Browse
Movies
TV shows
Music
Games
Applications
Anime
Other
Facebook
Advertising

Friends
Torrent Download
Movie4u
1337x.to
Torrent Downloads




Verified torrent Ghost Adventures - S04E07 - Vulture Mine.avi


    Seeders : 44      Leechers : 16
Hash :CEF667522FA049E49EB6AE097499B26210643030
Added :1 Year+ by trialNerrorVerified torrent uploader in TV shows
Size :349.72 MB
Stream :WATCH ONLINE @ Movie4u


Ghost Adventures - S04E07 - Vulture Mine.avi
Free and Fast Download with Usenet 300GB+ free







Trackers List

Tracker NameLast CheckStatusSeedersLeechers




Torrent File Content (1 file)


     Ghost Adventures - S04E07 - Vulture Mine.avi -
349.72 MB



Description



NOTE:  Not my normal work. When I get my own video of the episode it will be a higher quality and available in the
upcoming complete season torrent.


Format : AVI
Format/Info : Audio Video Interleave
File size : 350 MiB
Duration : 43mn 10s
Overall bit rate : 1 133 Kbps
Writing library : VirtualDub build 32839/release

Video
ID : 0
Format : MPEG-4 Visual
Format profile : Advanced [email protected]
Format settings, BVOP : Yes
Format settings, QPel : No
Format settings, GMC : No warppoints
Format settings, Matrix : Default (H.263)
Codec ID : XVID
Codec ID/Hint : XviD
Duration : 43mn 10s
Bit rate : 993 Kbps
Width : 624 pixels
Height : 352 pixels
Display aspect ratio : 16:9
Frame rate : 29.970 fps
Color space : YUV
Chroma subsampling : 4:2:0
Bit depth : 8 bits
Scan type : Progressive
Bits/(Pixel*Frame) : 0.151
Stream size : 307 MiB (88%)
Writing library : XviD 1.2.1 (UTC 2008-12-04)

Audio
ID : 1
Format : MPEG Audio
Format version : Version 1
Format profile : Layer 3
Mode : Joint stereo
Mode extension : MS Stereo
Codec ID : 55
Codec ID/Hint : MP3
Duration : 43mn 10s
Bit rate mode : Constant
Bit rate : 128 Kbps
Channel(s) : 2 channels
Sampling rate : 48.0 KHz
Stream size : 39.5 MiB (11%)
Alignment : Split accross interleaves
Interleave, duration : 33 ms (1.00 video frame)
Interleave, preload duration : 500 ms

Related torrents

Torrent NameAddedSizeSeedLeechHealth
1 Year+ - in TV shows228.53 MB173
1 Year+ - in TV shows1019.52 MB216
1 Year+ - in TV shows1019.52 MB00
1 Year+ - in TV shows228.53 MB00
2 months ago - in TV shows334.42 MB543174

Comments (0 Comments)




Please login or create a FREE account to post comments

Latest Searches

| Chelsea Camaron forever | lesbian porno | gang ba g | prod by smitty beats | woodman casting x lilou | Pass T A N G A | Mission impossible dual series | truck 9 | Fuck My White Ass 4 2008 | LegalPorno Hot teen Caterine Love gets destroyed |