Quick Browse
TV shows

Latest Articles

Torrent Download
Free Movies
Torrent Downloads

Verified torrent Ghost Adventures - S04E08 - USS Hornet.avi

    Seeders : 0      Leechers : 0

Hash :5160039EDEDB6078B0AE972E2B37D9F987692765
Added :1 Year+ by trialNerrorVerified torrent uploader in TV shows
Size :350.29 MB
Stream :Watch Online Full Movie @ Movie4u
Share :

Ghost Adventures - S04E08 - USS Hornet.avi
Download Direct And Anonymously

Warning! Do not Download Torrents Without a VPN!
Your IP Address is .   And Location is
Your Internet Provider and Government can track your torrent Activity!  Hide your IP ADDRESS with a VPN!
We Strongly Recommend Using CyberGhost VPN to Anonymize your Torrenting.

Note :

Please Update (Trackers Info) Before Downloading Torrents to See Updated Seeders And Leechers for Batter Download Speed.

Trackers List

Tracker NameLast CheckStatusSeedersLeechers
http://tracker.best-torrents.net:6969/announce3 months agosuccess00
http://tracker.thepiratebay.org/announce3 months agosuccess00
http://bigfoot1942.sektori.org:6969/announce3 months agosuccess00
http://announce.torrentsmd.com:6969/announce3 months agosuccess00
udp://tracker.coppersurfer.tk:803 months agosuccess00
udp://open.demonii.com:803 months agosuccess00
udp://tracker.zond.org:80/announce3 months agosuccess00
udp://tracker.ilibr.org:6969/announce3 months agosuccess00
udp://10.rarbg.me:80/announce3 months agosuccess00
http://torrent.gresille.org/announce3 months agosuccess00
http://torrent-tracker.ru/announce.php3 months agosuccess00
udp://tracker.btzoo.eu:80/announce3 months agosuccess00
http://tracker.winglai.com/announce3 months agosuccess00
http://tracker.windsormetalbattery.com/announce3 months agosuccess00
http://exodus.desync.com:6969/announce3 months agosuccess00
http://tracker.nwps.ws:6969/announce3 months agosuccess00
http://fr33dom.h33t.com:3310/announce3 months agosuccess00
http://tracker.trackerfix.com/announce3 months agosuccess00
udp://9.rarbg.com:2710/announce3 months agosuccess00
udp://ipv4.tracker.harry.lu:80/announce3 months agosuccess00
udp://tracker.istole.it:80/announce3 months agosuccess00
udp://tracker.openbittorrent.com:80/announce3 months agosuccess00
udp://tracker.publicbt.com:80/announce3 months agosuccess00
udp://open.demonii.com:1337/announce3 months agosuccess00
udp://tracker.ccc.de:80/announce3 months agosuccess00
udp://tracker.token.ro:80/announce3 months agosuccess00
http://nemesis.1337x.org/announce3 months agosuccess00
http://tracker.publicbt.com/announce3 months agosuccess00

Torrent File Content (1 file)

     Ghost Adventures - S04E08 - USS Hornet.avi -
350.29 MB


NOTE:  Not my normal work. When I get my own video of the episode it will be a higher quality and available in the
upcoming complete season torrent.

Format : AVI
Format/Info : Audio Video Interleave
File size : 350 MiB
Duration : 42mn 0s
Overall bit rate : 1 166 Kbps
Writing application : MEncoder SVN-r30881(20100311-gcc4.3.3)
Writing library : MPlayer

ID : 0
Format : MPEG-4 Visual
Format profile : Advanced [email protected]
Format settings, BVOP : Yes
Format settings, QPel : No
Format settings, GMC : No warppoints
Format settings, Matrix : Default (H.263)
Codec ID : XVID
Codec ID/Hint : XviD
Duration : 42mn 0s
Bit rate : 1 040 Kbps
Width : 624 pixels
Height : 352 pixels
Display aspect ratio : 16:9
Frame rate : 29.970 fps
Color space : YUV
Chroma subsampling : 4:2:0
Bit depth : 8 bits
Scan type : Progressive
Bits/(Pixel*Frame) : 0.158
Stream size : 312 MiB (89%)
Writing library : XviD 1.2.1 (UTC 2008-12-04)

ID : 1
Format : MPEG Audio
Format version : Version 1
Format profile : Layer 3
Mode : Joint stereo
Codec ID : 55
Codec ID/Hint : MP3
Duration : 41mn 59s
Bit rate mode : Constant
Bit rate : 112 Kbps
Channel(s) : 2 channels
Sampling rate : 48.0 KHz
Video delay : 33ms
Stream size : 33.6 MiB (10%)
Alignment : Aligned on interleaves
Interleave, duration : 24 ms (0.72 video frame)
Interleave, preload duration : 504 ms

Related torrents

Torrent NameAddedSizeSeedLeechHealth
1 Year+ - in TV shows1014.99 MB05
1 Year+ - in TV shows1014.99 MB00
1 Year+ - in TV shows181.13 MB00
1 Year+ - in TV shows181.11 MB00
1 Year+ - in TV shows181.11 MB00

Note :

Feel free to post any comments about this torrent, including links to Subtitle, samples, screenshots, or any other relevant information. Please Dont Download anything from Comments, And Dont Post Links to Streaming Sites like Fmovies, Xmovies8, 123Movies, GoMovies, CMovieshd, Solarmovie, Watchfree, Putlockers, GoStream, m4ufree etc.

Comments (0 Comments)

Please login or create a FREE account to post comments

Latest Searches

| three day s grace | The Favor 1994 1080p HDTV x264 DD2 0 FGT | Seraph of the End Battle in Nagoya | avg tuneup crack 2016 | Aagey Se Right DVDRip | into the storm ITA | avg pc tuneup 2015 crack 373 | indian romantic songs | tushy red | and creampie 2015 |