Quick Browse
Movies
TV shows
Music
Games
Applications
Anime
Other
Facebook
Advertising

Friends
Torrent Download
Movie4u
1337x.to
Torrent Downloads




Verified torrent Ghost Adventures - S04E08 - USS Hornet.avi


    Seeders : 75      Leechers : 26
Hash :5160039EDEDB6078B0AE972E2B37D9F987692765
Added :1 Year+ by trialNerrorVerified torrent uploader in TV shows
Size :350.29 MB
Stream :WATCH ONLINE @ Movie4u


Ghost Adventures - S04E08 - USS Hornet.avi
Free and Fast Download with Usenet 300GB+ free







Trackers List

Tracker NameLast CheckStatusSeedersLeechers




Torrent File Content (1 file)


     Ghost Adventures - S04E08 - USS Hornet.avi -
350.29 MB



Description



NOTE:  Not my normal work. When I get my own video of the episode it will be a higher quality and available in the
upcoming complete season torrent.


Format : AVI
Format/Info : Audio Video Interleave
File size : 350 MiB
Duration : 42mn 0s
Overall bit rate : 1 166 Kbps
Writing application : MEncoder SVN-r30881(20100311-gcc4.3.3)
Writing library : MPlayer

Video
ID : 0
Format : MPEG-4 Visual
Format profile : Advanced [email protected]
Format settings, BVOP : Yes
Format settings, QPel : No
Format settings, GMC : No warppoints
Format settings, Matrix : Default (H.263)
Codec ID : XVID
Codec ID/Hint : XviD
Duration : 42mn 0s
Bit rate : 1 040 Kbps
Width : 624 pixels
Height : 352 pixels
Display aspect ratio : 16:9
Frame rate : 29.970 fps
Color space : YUV
Chroma subsampling : 4:2:0
Bit depth : 8 bits
Scan type : Progressive
Bits/(Pixel*Frame) : 0.158
Stream size : 312 MiB (89%)
Writing library : XviD 1.2.1 (UTC 2008-12-04)

Audio
ID : 1
Format : MPEG Audio
Format version : Version 1
Format profile : Layer 3
Mode : Joint stereo
Codec ID : 55
Codec ID/Hint : MP3
Duration : 41mn 59s
Bit rate mode : Constant
Bit rate : 112 Kbps
Channel(s) : 2 channels
Sampling rate : 48.0 KHz
Video delay : 33ms
Stream size : 33.6 MiB (10%)
Alignment : Aligned on interleaves
Interleave, duration : 24 ms (0.72 video frame)
Interleave, preload duration : 504 ms

Related torrents

Torrent NameAddedSizeSeedLeechHealth
5 months ago - in TV shows1014.99 MB05
5 months ago - in TV shows1014.99 MB00
1 Year+ - in TV shows181.13 MB00
1 Year+ - in TV shows181.11 MB00
1 Year+ - in TV shows181.11 MB00

Comments (0 Comments)




Please login or create a FREE account to post comments

Latest Searches

| pdf x magazine | reid Riley Sex | blackberry smoke smoke 1 | around song colt ford | jose mari chans christmas songs | jeezy autobiography | rocco and sweet cat | bts e | cut it g | windows 1 home 64 bit iso |