Quick Browse
Movies
TV shows
Music
Games
Applications
Anime
Other
Facebook
Advertising

Friends
Torrent Download
Movie4u
1337x.to
Torrent Downloads




Verified torrent Ghost Adventures - S04E09 - La Palazza.[tNe.XViD].avi


    Seeders : 48      Leechers : 10
Hash :3D3BB66205AD6A4AFE904800B07F6F6D55EF6E3F
Added :1 Year+ by trialNerrorVerified torrent uploader in TV shows
Size :350.02 MB
Stream :WATCH ONLINE @ Movie4u


Ghost Adventures - S04E09 - La Palazza.[tNe.XViD].avi
Free and Fast Download with Usenet 300GB+ free







Trackers List

Tracker NameLast CheckStatusSeedersLeechers




Torrent File Content (1 file)


     Ghost Adventures - S04E09 - La Palazza.[tNe.XViD].avi -
350.02 MB



Description



Format : AVI
Format/Info : Audio Video Interleave
File size : 350 MiB
Duration : 42mn 0s
Overall bit rate : 1 165 Kbps
Writing library : VirtualDub build 32839/release

Video
ID : 0
Format : MPEG-4 Visual
Format profile : Advanced [email protected]
Format settings, BVOP : Yes
Format settings, QPel : No
Format settings, GMC : No warppoints
Format settings, Matrix : Default (H.263)
Codec ID : XVID
Codec ID/Hint : XviD
Duration : 42mn 0s
Bit rate : 1 034 Kbps
Width : 624 pixels
Height : 352 pixels
Display aspect ratio : 16:9
Frame rate : 29.970 fps
Color space : YUV
Chroma subsampling : 4:2:0
Bit depth : 8 bits
Scan type : Progressive
Bits/(Pixel*Frame) : 0.157
Stream size : 311 MiB (89%)
Writing library : XviD 1.2.1 (UTC 2008-12-04)

Audio
ID : 1
Format : MPEG Audio
Format version : Version 1
Format profile : Layer 3
Mode : Joint stereo
Mode extension : MS Stereo
Codec ID : 55
Codec ID/Hint : MP3
Duration : 41mn 59s
Bit rate mode : Variable
Bit rate : 117 Kbps
Minimum bit rate : 64.0 Kbps
Channel(s) : 2 channels
Sampling rate : 48.0 KHz
Stream size : 35.2 MiB (10%)
Alignment : Aligned on interleaves
Interleave, duration : 24 ms (0.72 video frame)
Interleave, preload duration : 550 ms
Writing library : LAME3.98r
Encoding settings : -m j -V 5 -q 0 -lowpass 16.5 --vbr-new -b 64

Related torrents

Torrent NameAddedSizeSeedLeechHealth
5 months ago - in TV shows1.09 GB00
5 months ago - in TV shows1.09 GB00
1 Year+ - in Other165.69 MB218
1 Year+ - in TV shows349.19 MB11
1 Year+ - in TV shows1.09 GB8333

Comments (0 Comments)




Please login or create a FREE account to post comments

Latest Searches

| b a r week 48 2016 | My Friends Tigger Pooh Super Sleuth Christmas | Ae Dil Hai Mushkil 2016 720p DVDRIP 1 2GB NBY | foursome season 2 episode 1 | Music Maestro MM6226 MM6230 | ytsag 720p | mcfarland usa 1080p NL subs | CockyBoys Benjamin | sap night 2016 | Sound Choice Karaoke SC3031 SC3035 |