Quick Browse
Movies
TV shows
Music
Games
Applications
Anime
Other
Facebook
Advertising

Friends
Torrent Download
Movie4u
1337x.to
Torrent Downloads




Verified torrent Ghost Adventures - S04E0A - Best Evidence So Far.[tNe.XViD].avi


    Seeders : 21      Leechers : 3

Trackers List

Tracker NameLast CheckStatusSeedersLeechers




Torrent File Content (1 file)


     Ghost Adventures - S04E0A - Best Evidence So Far.[tNe.XViD].avi -
349.99 MB



Description



Format : AVI
Format/Info : Audio Video Interleave
File size : 350 MiB
Duration : 41mn 15s
Overall bit rate : 1 186 Kbps
Writing application : MEncoder Sherpya-SVN-r30818-4.2.4
Writing library : VirtualDub build 32839/release

Video
ID : 0
Format : MPEG-4 Visual
Format profile : Advanced [email protected]
Format settings, BVOP : Yes
Format settings, QPel : No
Format settings, GMC : No warppoints
Format settings, Matrix : Default (H.263)
Muxing mode : Packed bitstream
Codec ID : XVID
Codec ID/Hint : XviD
Duration : 41mn 15s
Bit rate : 1 060 Kbps
Width : 624 pixels
Height : 352 pixels
Display aspect ratio : 16:9
Frame rate : 29.970 fps
Color space : YUV
Chroma subsampling : 4:2:0
Bit depth : 8 bits
Scan type : Progressive
Bits/(Pixel*Frame) : 0.161
Stream size : 313 MiB (89%)
Writing library : XviD 1.2.1 (UTC 2008-12-04)

Audio
ID : 1
Format : MPEG Audio
Format version : Version 1
Format profile : Layer 3
Mode : Joint stereo
Mode extension : MS Stereo
Codec ID : 55
Codec ID/Hint : MP3
Duration : 41mn 13s
Bit rate mode : Variable
Bit rate : 112 Kbps
Channel(s) : 2 channels
Sampling rate : 48.0 KHz
Stream size : 33.1 MiB (9%)
Alignment : Aligned on interleaves
Interleave, duration : 24 ms (0.72 video frame)
Interleave, preload duration : 650 ms

Related torrents

Torrent NameAddedSizeSeedLeechHealth
1 Year+ - in TV shows1.09 GB29
1 Year+ - in TV shows344.65 MB00
1 Year+ - in TV shows228.21 MB11
1 Year+ - in TV shows223.29 MB556
1 Year+ - in TV shows219.45 MB00

Comments (0 Comments)




Please login or create a FREE account to post comments

Latest Searches

| C 6 0 and the NET 4 6 Framework 7th Edition | Tittie Sluts Dirty Secret 2016 DVDRip | Lynyrd Skynyrd God And Guns | Sarah Vaughan FLAC Collection part 2 | trailer park boys 11 | Fitoor 2016 MP3 VBR 320Kbps Invincibl3 | giovanni mp4 | Eva Berger wetandpissy | pitbull trina go girl | financial magz newspapers |