Quick Browse
Movies
TV shows
Music
Games
Applications
Anime
Other
Facebook
Advertising

Friends
Torrent Download
Movie4u
1337x.to
Torrent Downloads




Verified torrent Ghost Adventures - S04E0B - Scariest Moments.[tNe.XViD].avi


    Seeders : 22      Leechers : 7

Trackers List

Tracker NameLast CheckStatusSeedersLeechers




Torrent File Content (1 file)


     Ghost Adventures - S04E0B - Scariest Moments.[tNe.XViD].avi -
349.4 MB



Description



Format : AVI
Format/Info : Audio Video Interleave
File size : 349 MiB
Duration : 41mn 59s
Overall bit rate : 1 163 Kbps
Writing application : MEncoder Sherpya-SVN-r30818-4.2.4
Writing library : VirtualDub build 32839/release

Video
ID : 0
Format : MPEG-4 Visual
Format profile : Advanced [email protected]
Format settings, BVOP : Yes
Format settings, QPel : No
Format settings, GMC : No warppoints
Format settings, Matrix : Default (H.263)
Muxing mode : Packed bitstream
Codec ID : XVID
Codec ID/Hint : XviD
Duration : 41mn 59s
Bit rate : 1 042 Kbps
Width : 624 pixels
Height : 352 pixels
Display aspect ratio : 16:9
Frame rate : 29.970 fps
Color space : YUV
Chroma subsampling : 4:2:0
Bit depth : 8 bits
Scan type : Progressive
Bits/(Pixel*Frame) : 0.158
Stream size : 313 MiB (90%)
Writing library : XviD 1.2.1 (UTC 2008-12-04)

Audio
ID : 1
Format : MPEG Audio
Format version : Version 1
Format profile : Layer 3
Mode : Joint stereo
Mode extension : MS Stereo
Codec ID : 55
Codec ID/Hint : MP3
Duration : 41mn 59s
Bit rate mode : Variable
Bit rate : 107 Kbps
Channel(s) : 2 channels
Sampling rate : 48.0 KHz
Stream size : 32.2 MiB (9%)
Alignment : Aligned on interleaves
Interleave, duration : 24 ms (0.72 video frame)
Interleave, preload duration : 566 ms

Related torrents

Torrent NameAddedSizeSeedLeechHealth
1 Year+ - in TV shows349.19 MB11
1 Year+ - in TV shows1.09 GB8333
Verified torrent
1 Year+ - in TV shows350.02 MB4810
4 months ago - in TV shows1.48 GB2420
4 months ago - in TV shows1.6 GB00

Comments (0 Comments)




Please login or create a FREE account to post comments

Latest Searches

| Friedman Thomas L | Thor The Dark World 2013 iTALiAN Bluray 1080p x264 | DarkX Nina Elle | windows 7 sp2 sp3 | 9678 7 | Killergram a Carmel Anderson a New Girl In The Office | hello martin | pai e | volo dd | cum young teen |