Quick Browse
Movies
TV shows
Music
Games
Applications
Anime
Other
Facebook
Advertising

Friends
Torrent Download
Movie4u
1337x.to
Torrent Downloads




Verified torrent Ghost Hunters - S06E21 - Home Is Where The Heart Is.[tNe.XViD].avi


    Seeders : 0      Leechers : 1

Trackers List

Tracker NameLast CheckStatusSeedersLeechers
http://bigfoot1942.sektori.org:6969/announce3 months agosuccess00
udp://tracker.coppersurfer.tk:803 months agosuccess01
udp://tracker.ilibr.org:6969/announce3 months agosuccess01
http://torrent.gresille.org/announce3 months agosuccess00
http://tracker.nwps.ws:6969/announce3 months agosuccess00
udp://ipv4.tracker.harry.lu:80/announce3 months agosuccess00
udp://9.rarbg.com:2710/announce3 months agosuccess00
http://tracker.trackerfix.com/announce3 months agosuccess00




Torrent File Content (1 file)


     Ghost Hunters - S06E21 - Home Is Where The Heart Is[tNe.XViD].avi -
349.7 MB



Description



Format : AVI
Format/Info : Audio Video Interleave
File size : 350 MiB
Duration : 43mn 30s
Overall bit rate : 1 124 Kbps
Writing application : MEncoder SVN-r30881(20100311-gcc4.3.3)
Writing library : MPlayer

Video
ID : 0
Format : MPEG-4 Visual
Format profile : Advanced [email protected]
Format settings, BVOP : Yes
Format settings, QPel : No
Format settings, GMC : No warppoints
Format settings, Matrix : Default (H.263)
Codec ID : XVID
Codec ID/Hint : XviD
Duration : 43mn 30s
Bit rate : 982 Kbps
Width : 624 pixels
Height : 352 pixels
Display aspect ratio : 16:9
Frame rate : 29.970 fps
Color space : YUV
Chroma subsampling : 4:2:0
Bit depth : 8 bits
Scan type : Progressive
Bits/(Pixel*Frame) : 0.149
Stream size : 306 MiB (87%)
Writing library : XviD 1.2.1 (UTC 2008-12-04)

Audio
ID : 1
Format : MPEG Audio
Format version : Version 1
Format profile : Layer 3
Mode : Joint stereo
Mode extension : MS Stereo
Codec ID : 55
Codec ID/Hint : MP3
Duration : 43mn 28s
Bit rate mode : Constant
Bit rate : 128 Kbps
Channel(s) : 2 channels
Sampling rate : 48.0 KHz
Video delay : 33ms
Stream size : 39.8 MiB (11%)
Alignment : Aligned on interleaves
Interleave, duration : 24 ms (0.72 video frame)
Interleave, preload duration : 504 ms

Related torrents

Torrent NameAddedSizeSeedLeechHealth
1 Year+ - in Other319.26 MB10
1 Year+ - in Music139.29 MB00
1 Year+ - in Music130.86 MB00
7 months ago - in Other9.52 MB00
1 Year+ - in Other915.73 KB00

Comments (0 Comments)




Please login or create a FREE account to post comments

Latest Searches

| deeper retribution of beth hdrip xvid ac3 evo | san and what | no man s zone | now you see me 2013 full hd | dominion s01e04 720p | ten canoes 2006 720p | evil angel roccos pov split scenes | First Anal Marina Visconti | TeenFidelity Stevie Shae Make Em Sweat 3 XXX 264 | game okc |