Quick Browse
Movies
TV shows
Music
Games
Applications
Anime
Other
Facebook
Advertising

Friends
Torrent Download
Movie4u
1337x.to
Torrent Downloads




Verified torrent Ghost Hunters - S06E22 - Empire State Haunt.[tNe.XViD].avi


    Seeders : 0      Leechers : 1

Trackers List

Tracker NameLast CheckStatusSeedersLeechers
http://bigfoot1942.sektori.org:6969/announce2 months agosuccess00
udp://tracker.coppersurfer.tk:802 months agosuccess01
udp://tracker.ilibr.org:6969/announce2 months agosuccess01
http://tracker.nwps.ws:6969/announce2 months agosuccess00
udp://9.rarbg.com:2710/announce2 months agosuccess00
http://tracker.trackerfix.com/announce2 months agosuccess00




Torrent File Content (1 file)


     Ghost Hunters - S06E22 - Empire State Haunt.[tNe.XViD].avi -
350.6 MB



Description



Format : AVI
Format/Info : Audio Video Interleave
File size : 351 MiB
Duration : 43mn 36s
Overall bit rate : 1 124 Kbps
Writing library : VirtualDub build 32839/release

Video
ID : 0
Format : MPEG-4 Visual
Format profile : Advanced [email protected]
Format settings, BVOP : Yes
Format settings, QPel : No
Format settings, GMC : No warppoints
Format settings, Matrix : Default (H.263)
Codec ID : XVID
Codec ID/Hint : XviD
Duration : 43mn 36s
Bit rate : 997 Kbps
Width : 624 pixels
Height : 352 pixels
Display aspect ratio : 16:9
Frame rate : 29.970 fps
Stream size : 311 MiB (89%)
Writing library : XviD 1.2.1 (UTC 2008-12-04)

Audio
ID : 1
Format : MPEG Audio
Format version : Version 1
Format profile : Layer 3
Mode : Joint stereo
Codec ID/Hint : MP3
Bit rate mode : Variable
Bit rate : 113 Kbps
Channel(s) : 2 channels
Sampling rate : 48.0 KHz
Stream size : 35.3 MiB (10%)
Writing library : LAME3.98r

Related torrents

Torrent NameAddedSizeSeedLeechHealth
1 Year+ - in TV shows241.44 MB04
1 Year+ - in TV shows1.09 GB00
1 Year+ - in TV shows351.48 MB00
1 Year+ - in TV shows351.73 MB00
1 Year+ - in TV shows1.09 GB112

Comments (0 Comments)




Please login or create a FREE account to post comments

Latest Searches

| ScambistiMaturi Valentina Bianchi | Pressure Sway Machinations | kumi 15 | all i for christmas | D16 Group plugins mac | working be | wifeysworld sandra otterson kate gets blackmailed | DOWNLOAD KMSpico 9 2 3 Final Windows 7 Activator Download | zombie night 2013 dvdrip xvid vip3r | Kahaani 2 2016 Hindi 1CD Desi Cam x264 AAC |