Quick Browse
Movies
TV shows
Music
Games
Applications
Anime
Other
Facebook
Advertising

Friends
Torrent Download
Movie4u
1337x.to
Torrent Downloads




Verified torrent Ghost Hunters - S06E23 - Sloss Furnace.[tNe.XViD].avi


    Seeders : 0      Leechers : 1
Hash :16CC2B14837353B05EEA864B3FB26090BF61E818
Added :1 Year+ by trialNerrorVerified torrent uploader in TV shows
Size :349.89 MB
Stream :WATCH ONLINE @ Movie4u


Ghost Hunters - S06E23 - Sloss Furnace.[tNe.XViD].avi
Free and Fast Download with Usenet 300GB+ free







Trackers List

Tracker NameLast CheckStatusSeedersLeechers
udp://tracker.coppersurfer.tk:802 months agosuccess01
http://bigfoot1942.sektori.org:6969/announce2 months agosuccess00
udp://tracker.ilibr.org:6969/announce2 months agosuccess01
http://tracker.nwps.ws:6969/announce2 months agosuccess00
udp://ipv4.tracker.harry.lu:80/announce2 months agosuccess00
udp://9.rarbg.com:2710/announce2 months agosuccess00
http://tracker.trackerfix.com/announce2 months agosuccess00




Torrent File Content (1 file)


     Ghost Hunters - S06E23 - Sloss Furnace.[tNe.XViD].avi -
349.89 MB



Description



Format : AVI
Format/Info : Audio Video Interleave
File size : 350 MiB
Duration : 43mn 39s
Overall bit rate : 1 120 Kbps
Writing library : VirtualDub build 32839/release

Video
ID : 0
Format : MPEG-4 Visual
Format profile : Advanced [email protected]
Format settings, BVOP : Yes
Format settings, QPel : No
Format settings, GMC : No warppoints
Format settings, Matrix : Default (H.263)
Codec ID : XVID
Codec ID/Hint : XviD
Duration : 43mn 39s
Bit rate : 994 Kbps
Width : 624 pixels
Height : 352 pixels
Display aspect ratio : 16:9
Frame rate : 29.970 fps
Color space : YUV
Chroma subsampling : 4:2:0
Bit depth : 8 bits
Scan type : Progressive
Bits/(Pixel*Frame) : 0.151
Stream size : 310 MiB (89%)
Writing library : XviD 1.2.1 (UTC 2008-12-04)

Audio
ID : 1
Format : MPEG Audio
Format version : Version 1
Format profile : Layer 3
Mode : Joint stereo
Mode extension : MS Stereo
Codec ID : 55
Codec ID/Hint : MP3
Duration : 43mn 38s
Bit rate mode : Variable
Bit rate : 113 Kbps
Channel(s) : 2 channels
Sampling rate : 48.0 KHz
Stream size : 35.2 MiB (10%)
Alignment : Aligned on interleaves
Interleave, duration : 24 ms (0.72 video frame)
Interleave, preload duration : 548 ms
Writing library : LAME3.98r

Related torrents

Torrent NameAddedSizeSeedLeechHealth
1 Year+ - in TV shows1.09 GB116
1 Year+ - in TV shows349.77 MB16931
1 Year+ - in TV shows1.09 GB218
1 Year+ - in TV shows349.26 MB221
1 Year+ - in TV shows349.37 MB19129

Comments (0 Comments)




Please login or create a FREE account to post comments

Latest Searches

| clips of porn | taylor ho | hailey young saturday night | Tiny Japanese Girl | stranded s cosplaying | bone thugs n harmony l | warriors 2016 nba | paradise city gunsnroses | Oxford NEW ENGLISH FILE Series Complete Interactive Tutorials | girl black anal |