Quick Browse
Movies
TV shows
Music
Games
Applications
Anime
Other
Facebook
Advertising

Friends
Torrent Download
Movie4u
1337x.to
Torrent Downloads




Ghost Lab - S02E03 - Lizzie Borden.[tNe.XViD].avi


    Seeders : 1      Leechers : 1
Hash :DC32138DC5FC64F00697B1D4EFE63245134F4F6D
Added :1 Year+ by trialNerrorVerified torrent uploader in TV shows
Size :348.09 MB
Stream :WATCH ONLINE @ Movie4u


Ghost Lab - S02E03 - Lizzie Borden.[tNe.XViD].avi
Free and Fast Download with Usenet 300GB+ free







Trackers List

Tracker NameLast CheckStatusSeedersLeechers




Torrent File Content (1 file)


     Ghost Lab - S02E03 - Lizzie Borden.[tNe.XViD].avi -
348.09 MB



Description



Format : AVI
Format/Info : Audio Video Interleave
File size : 348 MiB
Duration : 41mn 19s
Overall bit rate : 1 178 Kbps
Writing application : Lavf51.13.4
Writing library : VirtualDub build 32839/release

Video
ID : 0
Format : MPEG-4 Visual
Format profile : Advanced [email protected]
Format settings, BVOP : Yes
Format settings, QPel : No
Format settings, GMC : No warppoints
Format settings, Matrix : Default (H.263)
Codec ID : XVID
Codec ID/Hint : XviD
Duration : 41mn 19s
Bit rate : 1,037 Kbps
Width : 624 pixels
Height : 352 pixels
Display aspect ratio : 16:9
Frame rate : 29.970 fps
Color space : YUV
Chroma subsampling : 4:2:0
Bit depth : 8 bits
Scan type : Progressive
Bits/(Pixel*Frame) : 0.157
Stream size : 306 MiB (88%)
Writing library : XviD 1.2.1 (UTC 2008-12-04)

Audio
ID : 1
Format : MPEG Audio
Format version : Version 1
Format profile : Layer 3
Codec ID : 55
Codec ID/Hint : MP3
Duration : 41mn 18s
Bit rate mode : Constant
Bit rate : 128 Kbps
Channel(s) : 2 channels
Sampling rate : 44.1 KHz
Stream size : 37.8 MiB (11%)
Alignment : Aligned on interleaves
Interleave, duration : 26 ms (0.78 video frame)
Interleave, preload duration : 522 ms


Related torrents

Torrent NameAddedSizeSeedLeechHealth
1 Year+ - in TV shows1.1 GB134
1 Year+ - in TV shows349.83 MB012
1 Year+ - in TV shows350.53 MB1136
1 Year+ - in TV shows361.94 MB118
1 Year+ - in TV shows361.94 MB00

Comments (0 Comments)




Please login or create a FREE account to post comments

Latest Searches

| Homeland Season 4 720p x265 | American Horror Story S06E09 720p HDTV x264 | Brooklyn Nine season | total tattoo uk weird wild wonderful tattoos with power march 2014 | Fucking Berlin 2016 1080p | rfs you where right | Homeland Season 4 BluRay 720p x265 | flow vinyl | counter pro apk | Harry potter PhilosphorS stone hindi |