Quick Browse
Movies
TV shows
Music
Games
Applications
Anime
Other

Donate and Support

Friends
Torrents.me
Torrent Download
Free Movies
1337x
RARBG
Torrent Downloads

Verified torrent Ghost Rider Spirit of Vengeance 2012 720P TS READNFO XviD -26K


    Seeders : 1      Leechers : 1
Hash :1AAC4886051237CDDD376970478E967C46999E4B
Added :1 Year+ by memory100Verified torrent uploader in Movies
Size :2.07 GB
Stream :Watch Full Movies Online @ Movie4u
Share :


Ghost Rider Spirit of Vengeance 2012 720P TS READNFO XviD -26K
Anonymous and Direct Download 300GB+ free







Warning! Do not Download Torrents Without a VPN!
Your IP Address is .   And Location is
Your Internet Provider and Government can track your torrent Activity!  Hide your IP ADDRESS with a VPN!
We Strongly Recommend Using SpyOFF Torrent VPN to Anonymize your Torrenting. It's FREE For 15 Days!

Note :

Please Update (Trackers Info) Before Downloading Torrents to See Updated Seeders And Leechers for Batter Download Speed.

Trackers List

Tracker NameLast CheckStatusSeedersLeechers




Torrent File Content (8 files)


Ghost Rider Spirit of Vengeance 2012 720P TS READNFO XviD AC3-26K
     att-networks.com.txt -
39 bytes

     Ghost Rider Spirit of Vengeance 2012 720P TS READNFO XviD AC3-26K.avi -
2.06 GB

     Ghost Rider Spirit of Vengeance 2012 720P TS READNFO XviD AC3-26K.nfo -
3.2 KB

     HDSceneRG.txt -
115 bytes

     Sample.avi -
14.98 MB

     sceneunderground.org.txt -
77 bytes

     Torrent downloaded from Demonoid.me.txt -
46 bytes

     Torrent downloaded from rarbg.com.txt.txt -
0 bytes



Description



http://img197.imageshack.us/img197/8866/ghostom.jpg

[code]
Ghost Rider Spirit of Vengeance 2012 720P TS READNFO XviD -26K

http://www.imdb.com/title/tt1071875/

Plot:
As Johnny Blaze hides out in Eastern Europe, he is called upon to stop the devil, who is trying to take human form.

Sources - Thanks :P

Video
ID : 0
Format : MPEG-4 Visual
Format profile : Advanced [email protected]
Format settings, BVOP : 2
Format settings, QPel : No
Format settings, GMC : No warppoints
Format settings, Matrix : Default (H.263)
Muxing mode : Packed bitstream
Codec ID : XVID
Codec ID/Hint : XviD
Duration : 1h 28mn
Bit rate : 3 209 Kbps
Width : 1 280 pixels
Height : 540 pixels
Display aspect ratio : 2.35:1
Frame rate : 29.970 fps
Color space : YUV
Chroma subsampling : 4:2:0
Bit depth : 8 bits
Scan type : Progressive
Compression mode : Lossy
Bits/(Pixel*Frame) : 0.155
Stream size : 1.98 GiB (96%)
Writing library : XviD 64

Audio
ID : 1
Format : MPEG Audio
Format version : Version 1
Format profile : Layer 3
Mode : Joint stereo
Mode extension : MS Stereo
Codec ID : 55
Codec ID/Hint : MP3
Duration : 1h 28mn
Bit rate mode : Constant
Bit rate : 128 Kbps
Channel(s) : 2 channels
Sampling rate : 44.1 KHz
Compression mode : Lossy
Stream size : 80.7 MiB (4%)
Alignment : Split accross interleaves
Interleave, duration : 16368 ms (490.54 video frames)
Writing library : LAME3.99r
Encoding settings : -m j -V 4 -q 2 -lowpass 17 -b 128

Notes -
CROPPED,ROTATED AND CROPPED AND ADDED FEW FILTERS TO THE VIDEO... CAME OUT VERY NICE...
NOTE TO THE LEAKER SUCK MY PENCIL... AND GET LED POISIONING...
[/code]
Screens:
http://i.imgur.com/O2M6P.png

http://i.imgur.com/Q1KsU.png

http://img823.imageshack.us/img823/9434/vlcsnap2012022223h09m51.png

http://img821.imageshack.us/img821/2258/vlcsnap2012022223h10m51.png

http://img546.imageshack.us/img546/3152/vlcsnap2012022223h10m55.png

http://img692.imageshack.us/img692/8436/vlcsnap2012022223h11m07.png


Alternative screens:
http://www.hotimg.com/image/e6j3cYd
http://dippic.com/kkfe9vko2n0i
http://imgdepot.org/show/20120223/2/562358_3.png
http://www.imageporter.com/3zi2dp22ytc3/4.png.html

Related torrents

Torrent NameAddedSizeSeedLeechHealth
Verified torrent
1 Year+ - in Movies1.85 GB700124
1 Year+ - in Movies1.84 GB19
1 Year+ - in Movies3.41 GB00
1 Year+ - in Movies2.18 GB518
1 Year+ - in Movies1.88 GB149

Comments (0 Comments)




Please login or create a FREE account to post comments

Latest Searches

| delicious japan | Ozzy Osbourne Speak of the Devil live | Jump In 2007 720p HDTV x264 REGRET | PPV2011 AV9898 | MomPov One fucking amazing fun | Swinger vol 7 | disney collection animation | Dpmi | Federico Fellini s La Strada | Carrie underwood laundry |