Quick Browse
Movies
TV shows
Music
Games
Applications
Anime
Other

Donate and Support

Friends
Torrents.me
Torrent Download
Free Movies
1337x
RARBG
Torrent Downloads

Verified torrent GiMA Global Indian Music Awards Hindi 30th October [email protected]


    Seeders : 0      Leechers : 0
Hash :61C5B32658F0E891827D81371AB7FC17589AD734
Added :1 Year+ by mastitorrentsVerified torrent uploader in TV shows
Size :843.63 MB
Stream :Watch Full Movies Online @ Movie4u
Share :








Warning! Do not Download Torrents Without a VPN!
Your IP Address is .   And Location is
Your Internet Provider and Government can track your torrent Activity!  Hide your IP ADDRESS with a VPN!
We Strongly Recommend Using SpyOFF Torrent VPN to Anonymize your Torrenting. It's FREE For 15 Days!

Note :

Please Update (Trackers Info) Before Downloading Torrents to See Updated Seeders And Leechers for Batter Download Speed.

Trackers List

Tracker NameLast CheckStatusSeedersLeechers




Torrent File Content (3 files)


GiMA Global Indian Music Awards 30th October 2011(www.mastitorrents.com)
     www.mastitorrents.com.txt -
538 bytes

     Catch Us On Facebook.txt -
212 bytes

     GiMA Global Indian Music Awards 30th October 2011(www.mastitorrents.com).avi -
843.63 MB



Description



[color=red][font=Georgia]mastitorrents.com

http://mastitorrents.com/forums/index.php

Info :- Format : AVI Format/Info : Audio Video Interleave File size : 844 MiB Duration : 2h 46mn Overall bit rate : 710 Kbps Writing library : VirtualDub build 32842/release Video ID : 0 Format : MPEG-4 Visual Format profile : Advanced [email protected] Format settings, BVOP : Yes Format settings, QPel : No Format settings, GMC : No warppoints Format settings, Matrix : Default (H.263) Muxing mode : Packed bitstream Codec ID : XVID
Codec ID/Hint : XviD
Duration : 2h 46mn
Bit rate : 652 Kbps
Width : 640 pixels
Height : 360 pixels
Display aspect ratio : 16:9
Frame rate : 25.000 fps
Color space : YUV
Chroma subsampling : 4:2:0
Bit depth : 8 bits
Scan type : Progressive
Bits/(Pixel*Frame) : 0.113
Stream size : 775 MiB (92%)
Writing library : XviD 1.2.1 (UTC 2008-12-04)
Audio
ID : 1
Format : MPEG Audio
Format version : Version 2
Format profile : Layer 3
Mode : Joint stereo
Mode extension : Intensity Stereo + MS Stereo
Codec ID : 55 Codec ID/Hint : MP3 Duration : 2h 46mn
Bit rate mode : Constant
Bit rate : 48.0 Kbps
Channel(s) : 2 channels
Sampling rate : 24.0 KHz
Stream size : 57.0 MiB (7%)
Alignment : Split accross interleaves
Interleave, duration : 40 ms (1.00 video frame)
Interleave, preload duration : 500 ms
[/font][/color]

http://img23.imageshack.us/img23/8894/59gimaglobalindianmusic.jpg

http://img267.imageshack.us/img267/2633/93gimaglobalindianmusic.jpg

http://img253.imageshack.us/img253/5544/44gimaglobalindianmusic.jpg

http://img225.imageshack.us/img225/5544/44gimaglobalindianmusic.jpg

http://img407.imageshack.us/img407/1705/99gimaglobalindianmusic.jpg

http://img341.imageshack.us/img341/7461/92gimaglobalindianmusic.jpg

Related torrents

Torrent NameAddedSizeSeedLeechHealth
1 Year+ - in TV shows1.5 GB02
1 Year+ - in TV shows969.42 MB00
1 Year+ - in Music282.48 MB00
2 months ago - in Other250.35 MB00
3 months ago - in Other1.37 GB00

Comments (0 Comments)




Please login or create a FREE account to post comments

Latest Searches

| lego star wars strikes out | physics question | creedence clearwater revival creedence clearwater revival remastered | motogp 2015 round 0 | En tu fiesta me cole Mecano | paranormal activity 1 ac3 | Doghouse2009 | Mr Robot 720p s02e04 | padayppa | paul hardcastle 2015 |