Quick Browse
Movies
TV shows
Music
Games
Applications
Anime
Other
Facebook
Advertising

Friends
Torrent Download
Movie4u
1337x.to
Torrent Downloads




Verified torrent Gilberto Gil - Ao Vivo[Eac Flac Cue](TntVillage)


    Seeders : 7      Leechers : 8
Hash :797F4845F42160F3FC8E1C7EAA2F640E16AF8275
Added :1 Year+ by leoneneroVerified torrent uploader in Music - Music
Size :302.89 MB
Stream :WATCH ONLINE @ Movie4u


Gilberto Gil - Ao Vivo[Eac Flac Cue](TntVillage)
Free and Fast Download with Usenet 300GB+ free







Trackers List

Tracker NameLast CheckStatusSeedersLeechers




Torrent File Content (17 files)


Gilberto Gil - Ao Vivo
     00._%A.A.V.V.%_-_%GarotaDeIpanema%.MD5 -
1.46 KB

     00._%A.A.V.V.%_-_%GarotaDeIpanema%.nfo -
2.23 KB

     00._%A.A.V.V.%_-_%GarotaDeIpanema%.pls -
1.85 KB

     01 - João Sabino.flac -
64.36 MB

     02 - Abra o Olho.flac -
25.2 MB

     03 - Lugar Comum.flac -
28.96 MB

     04 - Menina Goiaba.flac -
41.72 MB

     05 - Sim, Foi Você.flac -
21.35 MB

     06 - Herói das Estrelas.flac -
35.69 MB

     07 - Cibernética.flac -
18.35 MB

     08 - Dos Pés à Cabeça.flac -
11.02 MB

     09 - O Compositor Me Disse.flac -
10.09 MB

     10 - Copo Vazio.flac -
16.66 MB

     11 - Dia de Festa.flac -
29.47 MB

     Ao Vivo.cue -
1.59 KB

     Gilberto Gil - Ao Vivo.log -
12.13 KB

     Gilberto Gil - Ao Vivo.m3u -
279 bytes



Description



http://img198.imageshack.us/img198/2434/progettocover.jpg


Gilberto Gil AO VIVO (1974)
Gravado ao Vivo no teatro Tuca, São Paulo.


http://img804.imageshack.us/img804/6671/dsc00727s.jpg


http://img804.imageshack.us/img804/5704/dsc00725v.jpg


http://img841.imageshack.us/img841/6396/dsc00722.gif


Artist: Gilberto Gil
Title Of Album: AO VIVO
Etichetta: Universal Music
Pubblicazione: (LP/1974), (CD/1998)
Produttore: Gilberto Gil
Genre: Mpb
Source: CD
Playing Time: 67,45
Total Size: 302,87 MB
Quality: FLAC+Cue+Log+Info+Cover
Bitrate: Lossless


http://img842.imageshack.us/img842/2360/valutazione.gif


http://img98.imageshack.us/img98/9113/progettotracklist.jpg


1.João Sabino [11.31]
2.Abra o Olho [04.49]
3.Lugar Comum [04.49]
4.Menina Goiaba [06.47]
5.Sim, Foi Você [05.46]
6.Herói das Estrelas [06.01]
7.Cibernética [07.45]
8.Dos Pés à Cabeça [04.27]
9.O Compositor Me Disse [04.01]
10.Copo Vazio [06.39]
11.Dia de Festa [05.05]


http://img210.imageshack.us/img210/734/progettorecensione.jpg


11 canzoni da solista di Gilberto Gil,
nello stesso anno fecondo in cui attuava spesso con gli amici Caetano Veloso e Gal Costa.
Il palco, a questo punto, è per questo genio, come la sala della sua casa. I suoi concerti sono eventi indementicavoli per la storia della Mpb. Il presente album mostra l'evoluzione del cantante ed un'anteprima di quello che poi sarebbe divenuto lo show presentato in Francia. Arte allo stao puro. Buon ascolto.

http://img121.imageshack.us/img121/5530/progettodescrizione.jpg


http://img94.imageshack.us/img94/6615/gilg.gif


GILBERTO GIL
Gilberto Gil, ex ministro della cultura brasiliana, è uno dei più importanti e noti musicisti brasiliani. Nasce a Salvador de Bahia, nel giugno 1942. Gil è un tropicalista che suona un samba postmoderno aggiornato con rock reggae e influenze africane (Bahia è la regione più nera del Brasile, patria di samba e riti magici intrecciati in modo singolare all'ortodossia cattolica).A otto anni è attirato dalla baião (un ritmo del nord del Brasile) di Luiz Gonzaga, inizia a suonare l'accordeon. Alla fine degli anni Cinquanta, Gil conosce la musica di un altro grande artista sudamericano, João Gilberto, decide allora di comprare una chitarra e impara a cantare e suonare la Bossa Nova. La sua prima apparizione pubblica avviene nel 1964: partecipa allo show di Bossa nova e di canzoni brasiliane tradizionali "Nós Por Exemplo". Nel 1965 Gil si trasferisce a São Paulo. dove riscuote il suo primo successo registrando Louvaçao. La sua notorietà segue due binari paralleli: quello musicale e quello politico. Il suo nome assume una grande influenza con l'ascesa del Tropicalismo, il movimento fondato insieme a Caetano Veloso, e che ebbe un ruolo importantissimo non solo nella musica, ma anche nel teatro, nel cinema e nella letteratura. Fu un sussulto di vitalità e di protesta, una specie di '68 brasiliano, a cui la dittatura militare rispose con le repressione. Gil e Veloso dovettero riparare in esilio a Londra. La sua musica, partita dalle influenze del folclore, era diventata più "metropolitana". In Inghilterra, perfezionò la sua tecnica di chitarrista e incominciò ad incidere dischi in inglese. Quando, nel gennaio del 2003, Lula da Silva assume i poteri di presidente del Brasile, chiama Gil a servire il suo Paese come ministro della Cultura. Nell'agosto del 2008 Gil lascia l'incarico di Ministro per dare più tempo alla sua musica. L'11 dicembre 2005 è tra i premiati, a Rio de Janeiro, nella X edizione del "Premio Italia nel mondo 2005", riconoscimento destinato a personalità del mondo della cultura, dell’arte, dello sport e dell’impresa che, con la loro attività, hanno onorato l’immagine dell’Italia nel Mondo; la motivazione recita: "Al Maestro Gilberto Gil, Ministro alla Cultura del Governo del Brasile; Gilberto Gil oltre ad essere un artista di rara sensibilità, famoso e amato in tutto il mondo, si è anche rivelato un abile e apprezzato politico".

http://img713.imageshack.us/img713/7143/progettodatitecnici.jpg


[quote]Exact Audio Copy V1.0 beta 3 from 29. August 2011

EAC extraction logfile from 5. February 2012, 19:23

Gilberto Gil / Ao Vivo

Used drive : HL-DT-STDVDRAM GSA-T40N Adapter: 0 ID: 0

Read mode : Secure
Utilize accurate stream : Yes
Defeat audio cache : Yes
Make use of C2 pointers : No

Read offset correction : 667
Overread into Lead-In and Lead-Out : No
Fill up missing offset samples with silence : Yes
Delete leading and trailing silent blocks : No
Null samples used in CRC calculations : Yes
Used interface : Native Win32 interface for Win NT & 2000
Gap handling : Appended to previous track

Used output format : User Defined Encoder
Selected bitrate : 896 kBit/s
Quality : High
Add ID3 tag : No
Command line compressor : C:\Program Files\Exact Audio Copy\FLAC\FLAC.EXE
Additional command line options : -8 -V -T "ARTIST=%artist%" -T "TITLE=%title%" -T "ALBUM=%albumtitle%" -T "DATE=%year%" -T "TRACKNUMBER=%tracknr%" -T "GENRE=%genre%" -T "COMMENT=%comment%" -T "BAND=%albuminterpret%" -T "ALBUMARTIST=%albuminterpret%" -T "COMPOSER=%composer%" %haslyrics%--tag-from-file=LYRICS="%lyricsfile%"%haslyrics% -T "DISCNUMBER=%cdnumber%" -T "TOTALDISCS=%totalcds%" -T "TOTALTRACKS=%numtracks%" %hascover%--picture="%coverfile%"%hascover% %source% -o %dest%


TOC of the extracted CD

Track | Start | Length | Start sector | End sector
---------------------------------------------------------
1 | 0:00.00 | 11:31.47 | 0 | 51871
2 | 11:31.47 | 4:49.10 | 51872 | 73556
3 | 16:20.57 | 4:49.25 | 73557 | 95256
4 | 21:10.07 | 6:47.48 | 95257 | 125829
5 | 27:57.55 | 5:46.30 | 125830 | 151809
6 | 33:44.10 | 6:01.35 | 151810 | 178919
7 | 39:45.45 | 7:45.72 | 178920 | 213866
8 | 47:31.42 | 4:27.28 | 213867 | 233919
9 | 51:58.70 | 4:01.15 | 233920 | 252009
10 | 56:00.10 | 6:39.70 | 252010 | 282004
11 | 62:40.05 | 5:05.10 | 282005 | 304889


Track 1

Filename F:\MY EAC[.FLAC]\Gilberto Gil - Ao Vivo\01 - João Sabino.flac

Pre-gap length 0:00:02.00

Peak level 93.7 %
Extraction speed 2.5 X
Track quality 100.0 %
Test CRC 67EDA881
Copy CRC 67EDA881
Cannot be verified as accurate (confidence 1) [64E97A7A], AccurateRip returned [2865EABF] (AR v2)
Copy OK

Track 2

Filename F:\MY EAC[.FLAC]\Gilberto Gil - Ao Vivo\02 - Abra o Olho.flac

Peak level 88.2 %
Extraction speed 1.8 X
Track quality 99.9 %
Test CRC 66698940
Copy CRC 66698940
Cannot be verified as accurate (confidence 1) [32DEF709], AccurateRip returned [1E19F944] (AR v2)
Copy OK

Track 3

Filename F:\MY EAC[.FLAC]\Gilberto Gil - Ao Vivo\03 - Lugar Comum.flac

Peak level 96.9 %
Extraction speed 2.1 X
Track quality 100.0 %
Test CRC DFBAA2D0
Copy CRC DFBAA2D0
Track not present in AccurateRip database
Copy OK

Track 4

Filename F:\MY EAC[.FLAC]\Gilberto Gil - Ao Vivo\04 - Menina Goiaba.flac

Peak level 100.0 %
Extraction speed 2.8 X
Track quality 100.0 %
Test CRC BBF1BB2F
Copy CRC BBF1BB2F
Cannot be verified as accurate (confidence 1) [49F7F28E], AccurateRip returned [B8AE505B] (AR v2)
Copy OK

Track 5

Filename F:\MY EAC[.FLAC]\Gilberto Gil - Ao Vivo\05 - Sim, Foi Você.flac

Peak level 100.0 %
Extraction speed 3.0 X
Track quality 100.0 %
Test CRC F2ED5DF6
Copy CRC F2ED5DF6
Cannot be verified as accurate (confidence 1) [0485CD91], AccurateRip returned [0A7AE765] (AR v2)
Copy OK

Track 6

Filename F:\MY EAC[.FLAC]\Gilberto Gil - Ao Vivo\06 - Herói das Estrelas.flac

Peak level 94.6 %
Extraction speed 3.5 X
Track quality 100.0 %
Test CRC E0E2BE52
Copy CRC E0E2BE52
Cannot be verified as accurate (confidence 1) [68190BE7], AccurateRip returned [43AC5B83] (AR v2)
Copy OK

Track 7

Filename F:\MY EAC[.FLAC]\Gilberto Gil - Ao Vivo\07 - Cibernética.flac

Peak level 99.9 %
Extraction speed 3.7 X
Track quality 100.0 %
Test CRC 9852354C
Copy CRC 9852354C
Cannot be verified as accurate (confidence 1) [3E22A0BA], AccurateRip returned [DB5C272A] (AR v2)
Copy OK

Track 8

Filename F:\MY EAC[.FLAC]\Gilberto Gil - Ao Vivo\08 - Dos Pés à Cabeça.flac

Peak level 100.0 %
Extraction speed 3.7 X
Track quality 100.0 %
Test CRC 178DE6DD
Copy CRC 178DE6DD
Cannot be verified as accurate (confidence 1) [DAB27C2C], AccurateRip returned [9201339D] (AR v2)
Copy OK

Track 9

Filename F:\MY EAC[.FLAC]\Gilberto Gil - Ao Vivo\09 - O Compositor Me Disse.flac

Peak level 100.0 %
Extraction speed 3.7 X
Track quality 100.0 %
Test CRC DD0CAA8F
Copy CRC DD0CAA8F
Cannot be verified as accurate (confidence 1) [73A6FCE2], AccurateRip returned [93E86A98] (AR v2)
Copy OK

Track 10

Filename F:\MY EAC[.FLAC]\Gilberto Gil - Ao Vivo\10 - Copo Vazio.flac

Peak level 100.0 %
Extraction speed 3.9 X
Track quality 100.0 %
Test CRC FB1A9440
Copy CRC FB1A9440
Track not present in AccurateRip database
Copy OK

Track 11

Filename F:\MY EAC[.FLAC]\Gilberto Gil - Ao Vivo\11 - Dia de Festa.flac

Peak level 99.8 %
Extraction speed 3.8 X
Track quality 99.9 %
Test CRC 3FBDAC6E
Copy CRC 3FBDAC6E
Cannot be verified as accurate (confidence 1) [58AF255E], AccurateRip returned [7398A709] (AR v2)
Copy OK

No errors occurred

End of status report

Accurately ripped

==== Log checksum 9E71169E356E0AB6D4E6ECEEAC2B89DADE5E574D165DC31782BF5AD2E0E9B4D8 ====[/quote]

http://img521.imageshack.us/img521/763/progettobandaeseed.jpg

Per i primi 10: 24 su 24:80/90 Kb/s

Related torrents

Torrent NameAddedSizeSeedLeechHealth
Verified torrent
1 Year+ - in Music462 MB619
Verified torrent
1 Year+ - in Music367.87 MB118
Verified torrent
1 Year+ - in Music474.98 MB11
Verified torrent
1 Year+ - in Music409.84 MB722
Verified torrent
1 Year+ - in Music416.64 MB513

Comments (0 Comments)




Please login or create a FREE account to post comments

Latest Searches

| days of our lives december 1 2016 | friends with better lives s01e10 480p hdtv x264 msd | 2013 volume ii | slave sex | snow flow 1 8 | World War split | x files season 3 web dl | snapped Camron | kirtu adult comic | babygotboobs luna star big boob squirtdown brazzers 1080p new august 24 2015 |