Quick Browse
Movies
TV shows
Music
Games
Applications
Anime
Other
Facebook
Advertising

Friends
Torrent Download
Movie4u
1337x.to
Torrent Downloads




Verified torrent Gilberto Gil - Sao Joao Ao Vivo[Eac Flac Cue](TntVillage)


    Seeders : 6      Leechers : 19

Trackers List

Tracker NameLast CheckStatusSeedersLeechers




Torrent File Content (24 files)


Gillberto Gil - Sao Joao Ao Vivo
     00._%GilbertoGil%_-_%SaoJoaoAoVivo%.nfo -
2.78 KB

     01 - Olha pro Céu.flac -
26.31 MB

     02 - Óia Eu Aqui de Novo.flac -
21.62 MB

     03 - Asa Branca.flac -
21.1 MB

     04 - Baião da Penha.flac -
33.78 MB

     05 - Qui Nem Jiló.flac -
21.28 MB

     06 - Baião - De Onde Vem o Baião.flac -
38.93 MB

     07 - Lamento Sertanejo (Forró Do Dominguinhos).flac -
22.95 MB

     08 - Cajuína - Refazenda.flac -
20.58 MB

     09 - Pau-de-Arara.flac -
18.51 MB

     10 - Respeita Januário.flac -
16.47 MB

     11 - O Xote das Meninas.flac -
22.84 MB

     12 - Eu Só Quero um Xodó.flac -
20.72 MB

     13 - Vem Morena.flac -
25 MB

     14 - Esperando na Janela.flac -
27.93 MB

     15 - Último Pau-de-Arara.flac -
20.86 MB

     16 - Madalena (Entra em Beco, Sai em Beco).flac -
27.37 MB

     17 - Toda Menina Baiana.flac -
35 MB

     18 - Na Casa Dela.flac -
25.35 MB

     19 - Esperando na Janela (Versão acústica).flac -
15.28 MB

     Gilberto Gil - Sao Joao Vivo - Front.jpg -
94.25 KB

     Gilberto Gil - São João Vivo.cue -
2.17 KB

     Gilberto Gil - São João Vivo.log -
16.66 KB

     Gilberto Gil - São João Vivo.m3u -
600 bytes



Description



Gilberto Gil - SãO JOãO VIVO (2001)
Registrado ao Vivo na Casa De Espectaculo Via Funchal, SP.


http://img198.imageshack.us/img198/2434/progettocover.jpg


http://img52.imageshack.us/img52/6472/gilbertogilsaojoaovivof.jpg


http://img594.imageshack.us/img594/7717/gilbertogilsaojoaovivob.jpg


Artist: Gilberto Gil
Title Of Album: SÃO JOÃO VIVO
Etichetta: WEA
Pubblicazione: 2001
Produttore: Gilberto Gil
Genre: Mpb
Style: Forró
Source: CD
Playing Time.........: 76:42
Total Size...........: 461,88 MB
Quality: FLAC+Cue+Log
Bitrate: Lossless[/b]

http://img98.imageshack.us/img98/9113/progettotracklist.jpg


1. Olha pro ceu (4:04)

2. Oia eu aqui de novo (3:23)

3. 0Asa branca (3:12)

4. Baiao da penha (5:23)

5. Qui nem jilo' (3:14)

6. Baiao/de onde vern o baiao (6:09)

7. Lamento sertanejo (4:24)

8. Cajuina/refazenda (3:43)

9. Pau-de-arara (3:26)

10. Respeita januario (2:42)

11. O xote das meninas (3:45)

12. Eu so quero um xodo (3:22)

13. Vem morena (4:05)

14. Na casa dela (3:22)

15. Ultimo pau-de-arara (3:32)

16. Madalena (entra em beco, sai em beco) (4:40)

17. Toda menina baiana (5:46)

18. Esperando na janela (4:26)(faixa-bonus) (3:22)


http://img210.imageshack.us/img210/734/progettorecensione.jpg


Il CD sintetizza benissimo in un live infuocato e coinvolgente, l’essenza della musica di Gil (la ricerca costante della spiritualità e della tradizione latino americana, l’unione tra vari stili per cercare una nuova via moderna da far percorrere al samba) e poi perché riprende alcune canzoni tratte dall’album “Eu Tu Eles”, che è uno dei migliori lavori di Gil.
Ovviamente, nessuna guida ufficiale alla MPB vi indicherà questo live come fondamentale ma sicuramente è un ottimo punto di partenza per scoprire Gilberto Gil.
“Asa Branca”, “Baiao da Penha”, la romantica “Eu So Quero Um Xodò”, “Vem Morena” e la bellissima “Esperando na Janela” sono alcuni tasselli di un live unico, pieno di ritmo, brasiliano al 100% ma che, allo stesso tempo, rende omaggio al grande Luis Gonzaga attraverso la rilettura di alcuni classici del songwriter pernambuchiano come “Olha pro ceu” o la stessa “Asa Branca”.


http://img121.imageshack.us/img121/5530/progettodescrizione.jpg

http://img576.imageshack.us/img576/6244/gilbertogil320x24012302.gif


Gilberto Gil, ex ministro della cultura brasiliano del governo Lula (perché in Brasile a fare il ministero della cultura ci mettono persone che fanno cultura o che hanno alle spalle una storia culturale, ogni riferimento a fatti e persone è puramente casuale), fa parte della corrente tropicalista brasiliana, a cui appartiene anche il suo amico Caetano Veloso e oltre ad essere un bravissimo chitarrista (Joao Gilberto ha più volte tessuto le lodi di Gil), ha avuto il merito di aver rimodernato il samba brasiliano modellandolo sullo stile reggae e afro-blues.

http://img713.imageshack.us/img713/7143/progettodatitecnici.jpg


[quote]Exact Audio Copy V1.0 beta 3 from 29. August 2011

EAC extraction logfile from 29. January 2012, 23:21

Gilberto Gil / São João Vivo

Used drive : HL-DT-STDVDRAM GSA-T40N Adapter: 0 ID: 0

Read mode : Secure
Utilize accurate stream : Yes
Defeat audio cache : Yes
Make use of C2 pointers : No

Read offset correction : 667
Overread into Lead-In and Lead-Out : No
Fill up missing offset samples with silence : Yes
Delete leading and trailing silent blocks : No
Null samples used in CRC calculations : Yes
Used interface : Native Win32 interface for Win NT & 2000
Gap handling : Not detected, thus appended to previous track

Used output format : User Defined Encoder
Selected bitrate : 896 kBit/s
Quality : High
Add ID3 tag : No
Command line compressor : C:\Program Files\Exact Audio Copy\FLAC\FLAC.EXE
Additional command line options : -8 -V -T "ARTIST=%artist%" -T "TITLE=%title%" -T "ALBUM=%albumtitle%" -T "DATE=%year%" -T "TRACKNUMBER=%tracknr%" -T "GENRE=%genre%" -T "COMMENT=%comment%" -T "BAND=%albuminterpret%" -T "ALBUMARTIST=%albuminterpret%" -T "COMPOSER=%composer%" %haslyrics%--tag-from-file=LYRICS="%lyricsfile%"%haslyrics% -T "DISCNUMBER=%cdnumber%" -T "TOTALDISCS=%totalcds%" -T "TOTALTRACKS=%numtracks%" %hascover%--picture="%coverfile%"%hascover% %source% -o %dest%


TOC of the extracted CD

Track | Start | Length | Start sector | End sector
---------------------------------------------------------
1 | 0:00.00 | 4:04.25 | 0 | 18324
2 | 4:04.25 | 3:23.37 | 18325 | 33586
3 | 7:27.62 | 3:12.38 | 33587 | 48024
4 | 10:40.25 | 5:23.27 | 48025 | 72276
5 | 16:03.52 | 3:14.20 | 72277 | 86846
6 | 19:17.72 | 6:09.35 | 86847 | 114556
7 | 25:27.32 | 4:25.00 | 114557 | 134431
8 | 29:52.32 | 3:43.55 | 134432 | 151211
9 | 33:36.12 | 3:26.03 | 151212 | 166664
10 | 37:02.15 | 2:42.70 | 166665 | 178884
11 | 39:45.10 | 3:45.00 | 178885 | 195759
12 | 43:30.10 | 3:22.15 | 195760 | 210924
13 | 46:52.25 | 4:05.07 | 210925 | 229306
14 | 50:57.32 | 4:26.20 | 229307 | 249276
15 | 55:23.52 | 3:32.45 | 249277 | 265221
16 | 58:56.22 | 4:40.63 | 265222 | 286284
17 | 63:37.10 | 5:49.37 | 286285 | 312496
18 | 69:26.47 | 3:53.43 | 312497 | 330014
19 | 73:20.15 | 3:22.42 | 330015 | 345206


Track 1

Filename C:\Users\leomarco\Contacts\Desktop\01 - Olha pro Céu.flac

Peak level 97.7 %
Extraction speed 2.1 X
Track quality 99.9 %
Test CRC 226231AC
Copy CRC 226231AC
Track not present in AccurateRip database
Copy OK

Track 2

Filename C:\Users\leomarco\Contacts\Desktop\02 - Óia Eu Aqui de Novo.flac

Peak level 97.7 %
Extraction speed 2.2 X
Track quality 99.9 %
Test CRC AE699B51
Copy CRC AE699B51
Track not present in AccurateRip database
Copy OK

Track 3

Filename C:\Users\leomarco\Contacts\Desktop\03 - Asa Branca.flac

Peak level 97.1 %
Extraction speed 2.7 X
Track quality 100.0 %
Test CRC 8BEFEF46
Copy CRC 8BEFEF46
Track not present in AccurateRip database
Copy OK

Track 4

Filename C:\Users\leomarco\Contacts\Desktop\04 - Baião da Penha.flac

Peak level 97.7 %
Extraction speed 2.8 X
Track quality 99.9 %
Test CRC 31858725
Copy CRC 31858725
Track not present in AccurateRip database
Copy OK

Track 5

Filename C:\Users\leomarco\Contacts\Desktop\05 - Qui Nem Jiló.flac

Peak level 97.7 %
Extraction speed 3.1 X
Track quality 100.0 %
Test CRC 97F3C71E
Copy CRC 97F3C71E
Track not present in AccurateRip database
Copy OK

Track 6

Filename C:\Users\leomarco\Contacts\Desktop\06 - Baião - De Onde Vem o Baião.flac

Peak level 97.7 %
Extraction speed 3.5 X
Track quality 100.0 %
Test CRC D17AD584
Copy CRC D17AD584
Track not present in AccurateRip database
Copy OK

Track 7

Filename C:\Users\leomarco\Contacts\Desktop\07 - Lamento Sertanejo (Forró Do Dominguinhos).flac

Peak level 90.3 %
Extraction speed 3.7 X
Track quality 100.0 %
Test CRC 232BD36B
Copy CRC 232BD36B
Track not present in AccurateRip database
Copy OK

Track 8

Filename C:\Users\leomarco\Contacts\Desktop\08 - Cajuína - Refazenda.flac

Peak level 96.6 %
Extraction speed 3.2 X
Track quality 99.9 %
Test CRC E00449ED
Copy CRC E00449ED
Track not present in AccurateRip database
Copy OK

Track 9

Filename C:\Users\leomarco\Contacts\Desktop\09 - Pau-de-Arara.flac

Peak level 97.7 %
Extraction speed 3.7 X
Track quality 100.0 %
Test CRC 02D3E560
Copy CRC 02D3E560
Track not present in AccurateRip database
Copy OK

Track 10

Filename C:\Users\leomarco\Contacts\Desktop\10 - Respeita Januário.flac

Peak level 97.7 %
Extraction speed 3.6 X
Track quality 100.0 %
Test CRC 85A0441E
Copy CRC 85A0441E
Track not present in AccurateRip database
Copy OK

Track 11

Filename C:\Users\leomarco\Contacts\Desktop\11 - O Xote das Meninas.flac

Peak level 97.7 %
Extraction speed 4.0 X
Track quality 100.0 %
Test CRC BF0FF584
Copy CRC BF0FF584
Track not present in AccurateRip database
Copy OK

Track 12

Filename C:\Users\leomarco\Contacts\Desktop\12 - Eu Só Quero um Xodó.flac

Peak level 97.7 %
Extraction speed 3.5 X
Track quality 99.9 %
Test CRC 92750AFA
Copy CRC 92750AFA
Track not present in AccurateRip database
Copy OK

Track 13

Filename C:\Users\leomarco\Contacts\Desktop\13 - Vem Morena.flac

Peak level 97.7 %
Extraction speed 4.3 X
Track quality 100.0 %
Test CRC C76B5ADE
Copy CRC C76B5ADE
Track not present in AccurateRip database
Copy OK

Track 14

Filename C:\Users\leomarco\Contacts\Desktop\14 - Esperando na Janela.flac

Peak level 97.7 %
Extraction speed 3.9 X
Track quality 99.9 %
Test CRC 18E6025D
Copy CRC 18E6025D
Track not present in AccurateRip database
Copy OK

Track 15

Filename C:\Users\leomarco\Contacts\Desktop\15 - Último Pau-de-Arara.flac

Peak level 96.2 %
Extraction speed 4.5 X
Track quality 100.0 %
Test CRC 82E699A0
Copy CRC 82E699A0
Track not present in AccurateRip database
Copy OK

Track 16

Filename C:\Users\leomarco\Contacts\Desktop\16 - Madalena (Entra em Beco, Sai em Beco).flac

Peak level 96.9 %
Extraction speed 4.2 X
Track quality 99.9 %
Test CRC BD272D03
Copy CRC BD272D03
Track not present in AccurateRip database
Copy OK

Track 17

Filename C:\Users\leomarco\Contacts\Desktop\17 - Toda Menina Baiana.flac

Peak level 97.3 %
Extraction speed 4.9 X
Track quality 100.0 %
Test CRC 355659FD
Copy CRC 355659FD
Track not present in AccurateRip database
Copy OK

Track 18

Filename C:\Users\leomarco\Contacts\Desktop\18 - Na Casa Dela.flac

Peak level 97.1 %
Extraction speed 4.8 X
Track quality 100.0 %
Test CRC 23D60CD6
Copy CRC 23D60CD6
Track not present in AccurateRip database
Copy OK

Track 19

Filename C:\Users\leomarco\Contacts\Desktop\19 - Esperando na Janela (Versão acústica).flac

Peak level 91.3 %
Extraction speed 4.2 X
Track quality 99.9 %
Test CRC F7DCCCA8
Copy CRC F7DCCCA8
Track not present in AccurateRip database
Copy OK


None of the tracks are present in the AccurateRip database

No errors occurred

End of status report

==== Log checksum BACDF5361DAAE8672AB9B1965EBC98112586CCB80751EA40DC8ECBCC1BEDA43B ====[/quote]

http://img521.imageshack.us/img521/763/progettobandaeseed.jpg


24h: 80/90 Kb/s

Related torrents

Torrent NameAddedSizeSeedLeechHealth
Verified torrent
1 Year+ - in Music302.89 MB78
Verified torrent
1 Year+ - in Music367.87 MB118
Verified torrent
1 Year+ - in Music474.98 MB11
Verified torrent
1 Year+ - in Music409.84 MB722
Verified torrent
1 Year+ - in Music416.64 MB513

Comments (0 Comments)




Please login or create a FREE account to post comments

Latest Searches

| blood wars underworld | 007 shanty town | the thinking mans guide to dress | Fill My Throat 4 2012 DVDRip | X Men Special Edition | Triple Cs Suede Royale | ripper street s04e04 ettv | suicide squad 2016 flac | w4b inga | the legends tomorrow |