Quick Browse
Movies
TV shows
Music
Games
Applications
Anime
Other
Facebook
Advertising

Friends
Torrent Download
Movie4u
1337x.to
Torrent Downloads




Gilberto Gil-No Palco[EacFlacCue](TntVillage)


    Seeders : 10      Leechers : 8
Hash :2534C2A01404EF802A4183B589D4CA3C786B988C
Added :1 Year+ by leoneneroVerified torrent uploader in Music - Music
Size :497.59 MB
Stream :WATCH ONLINE @ Movie4u


Gilberto Gil-No Palco[EacFlacCue](TntVillage)
Free and Fast Download with Usenet 300GB+ free







Trackers List

Tracker NameLast CheckStatusSeedersLeechers




Torrent File Content (21 files)


G1lb3rt0 G1l - N0 P4lc0
     00._%Gilberto Gil%_-_%No Palco%.m3u -
2.09 KB

     00._%Gilberto Gil%_-_%No Palco%.MD5 -
1.91 KB

     00._%Gilberto Gil%_-_%No Palco%.nfo -
2.34 KB

     01 - Introdução , Palco.flac -
47.25 MB

     02 - Estrela.flac -
29.82 MB

     03 - Só Chamei Porque Te Amo (I Just Called To Say I Love You).flac -
23.75 MB

     04 - Domingo No Parque.flac -
26.08 MB

     05 - Vamos Fugir.flac -
56.61 MB

     06 - A Novidade.flac -
36.08 MB

     07 - Expresso 2222.flac -
31.43 MB

     08 - Esperando Na Janela.flac -
30.12 MB

     09 - Nos Barracos Da Cidade.flac -
41.29 MB

     10 - A Paz (Leila IV).flac -
26.08 MB

     11 - Esotérico.flac -
30.39 MB

     12 - Quanta.flac -
36.45 MB

     13 - Aquele Abraço.flac -
36.17 MB

     14 - Soy Loco Por Ti, América.flac -
46.02 MB

     folder.jpg -
43.65 KB

     G1lb3rt0 G1l - N0 P4lc0.cue -
2.12 KB

     G1lb3rt0 G1l - N0 P4lc0.log -
12.68 KB

     Gilberto Gil - Nova Série - Gilberto Gil No Palco.m3u -
410 bytes



Description



http://img198.imageshack.us/img198/2434/progettocover.jpg


http://img441.imageshack.us/img441/7674/showimageaspxe.jpg


Título Original: NOVA SÉRIE - GILBERTO GIL - NO PALCO
Gênero: MPB
Intérprete: Gilberto gil
Quantidade de Discos: 1
Tipo de Embalagem: Digifile
Ano de Lançamento: 2007
Gravadora: Warner Music
Time: 79:01

http://img98.imageshack.us/img98/9113/progettotracklist.jpg


1. Gilberto Gil - Introdução / Palco [06.30]
2. Gilberto Gil - Estrela [04.45]
3. Gilberto Gil - Só Chamei Porque Te Amo (I Just Called To Say I Love You)[04.39]
4. Gilberto Gil - Domingo No Parque [04.32]
5. Gilberto Gil - Vamos Fugir [08.26]
6. Gilberto Gil - A Novidade [05.19]
7. Gilberto Gil - Expresso 2222 [04.36]
8. Gilberto Gil - Esperando Na Janela [04.31]
9. Gilberto Gil - Nos Barracos Da Cidade [06.23]
10. Gilberto Gil - A Paz (Leila IV) [04.49]
11. Gilberto Gil - Esotérico [05.14]
12. Gilberto Gil - Quanta [05.56]
13. Gilberto Gil - Aquele Abraço [05.37]
14. Gilberto Gil - Soy Loco Por Ti, América [07.38]

http://img210.imageshack.us/img210/734/progettorecensione.jpg

Questo disco dal vivo contiene una performace che tocca il lato più introspettivo della musica di Gil e brasiliana in generale. Particolarmente memorabile è il terzo pezzo, di Wonder, che ha una sorta di gioiosa atmosfera tropicale ad esso che è controbilanciato da un ponte musicale che appare più volte che mette le corde principali della voce contro gli accordi minori della band, creando un interessante sezione 'teso' in una canzone altrimenti pessimista. Questo disco è una grande aggiunta a qualsiasi raccolta MPB. Una bella Jam Session.

http://img121.imageshack.us/img121/5530/progettodescrizione.jpg


GILBERTO GIL
er coloro che alla parola "Brasile" non associano soltanto successi calcistici, carnevale e donne seminude, quello di Gilberto Gil non è un nome qualsiasi. Creatore e alfiere del movimento del tropicalismo, deportato nel '68 in Inghilterra per ordine della dittatura militare, ex-ministro della Cultura a fianco di Lula, cantante e musicista straordinario: Gilberto Gil può essere considerato oggi, per i successi e per la sconfinata fama ottenuti in tutto il mondo, il più grande musicista brasiliano vivente.

http://img713.imageshack.us/img713/7143/progettodatitecnici.jpg

Exact Audio Copy V1.0 beta 1 from 15. November 2010

EAC extraction logfile from 14. October 2011, 10:55

Gilberto Gil / Nova Série - Gilberto Gil No Palco

Used drive : HL-DT-STDVDRAM GSA-T40N Adapter: 0 ID: 0

Read mode : Secure
Utilize accurate stream : Yes
Defeat audio cache : No
Make use of C2 pointers : Yes

Read offset correction : 667
Overread into Lead-In and Lead-Out : No
Fill up missing offset samples with silence : Yes
Delete leading and trailing silent blocks : No
Null samples used in CRC calculations : No
Used interface : Native Win32 interface for Win NT & 2000
Gap handling : Not detected, thus appended to previous track

Used output format : User Defined Encoder
Selected bitrate : 768 kBit/s
Quality : High
Add ID3 tag : No
Command line compressor : c:\Users\leomarco\Contacts\Desktop\Exact Audio Copy\FLAC\FLAC.EXE
Additional command line options : -6 -V -T "ARTIST=%a" -T "TITLE=%t" -T "ALBUM=%g" -T "DATE=%y" -T "TRACKNUMBER=%n" -T "GENRE=%m" -T "COMMENT=%e" %j--picture="%i"%j %s -o %d


TOC of the extracted CD

Track | Start | Length | Start sector | End sector
---------------------------------------------------------
1 | 0:00.00 | 6:30.34 | 0 | 29283
2 | 6:30.34 | 4:45.16 | 29284 | 50674
3 | 11:15.50 | 4:39.40 | 50675 | 71639
4 | 15:55.15 | 4:32.35 | 71640 | 92074
5 | 20:27.50 | 8:26.04 | 92075 | 130028
6 | 28:53.54 | 5:19.20 | 130029 | 153973
7 | 34:12.74 | 4:36.61 | 153974 | 174734
8 | 38:49.60 | 4:31.45 | 174735 | 195104
9 | 43:21.30 | 6:23.16 | 195105 | 223845
10 | 49:44.46 | 4:49.48 | 223846 | 245568
11 | 54:34.19 | 5:14.29 | 245569 | 269147
12 | 59:48.48 | 5:56.73 | 269148 | 295920
13 | 65:45.46 | 5:37.07 | 295921 | 321202
14 | 71:22.53 | 7:38.53 | 321203 | 355605


Track 1

Filename C:\Users\leomarco\Contacts\Desktop\01 - Introdução , Palco.flac

Peak level 88.1 %
Extraction speed 9.2 X
Track quality 99.9 %
Test CRC AB0C407E
Copy CRC AB0C407E
Track not present in AccurateRip database
Copy OK

Track 2

Filename C:\Users\leomarco\Contacts\Desktop\02 - Estrela.flac

Peak level 88.1 %
Extraction speed 10.2 X
Track quality 100.0 %
Test CRC 27348730
Copy CRC 27348730
Track not present in AccurateRip database
Copy OK

Track 3

Filename C:\Users\leomarco\Contacts\Desktop\03 - Só Chamei Porque Te Amo (I Just Called To Say I Love You).flac

Peak level 98.0 %
Extraction speed 11.0 X
Track quality 99.9 %
Test CRC 2433FBCB
Copy CRC 2433FBCB
Track not present in AccurateRip database
Copy OK

Track 4

Filename C:\Users\leomarco\Contacts\Desktop\04 - Domingo No Parque.flac

Peak level 98.1 %
Extraction speed 11.8 X
Track quality 100.0 %
Test CRC 4D0A9FC2
Copy CRC 4D0A9FC2
Track not present in AccurateRip database
Copy OK

Track 5

Filename C:\Users\leomarco\Contacts\Desktop\05 - Vamos Fugir.flac

Peak level 98.1 %
Extraction speed 13.2 X
Track quality 100.0 %
Test CRC 63612D5D
Copy CRC 63612D5D
Track not present in AccurateRip database
Copy OK

Track 6

Filename C:\Users\leomarco\Contacts\Desktop\06 - A Novidade.flac

Peak level 98.1 %
Extraction speed 13.8 X
Track quality 100.0 %
Test CRC 29445923
Copy CRC 29445923
Track not present in AccurateRip database
Copy OK

Track 7

Filename C:\Users\leomarco\Contacts\Desktop\07 - Expresso 2222.flac

Peak level 87.5 %
Extraction speed 14.5 X
Track quality 100.0 %
Test CRC A0873E72
Copy CRC A0873E72
Track not present in AccurateRip database
Copy OK

Track 8

Filename C:\Users\leomarco\Contacts\Desktop\08 - Esperando Na Janela.flac

Peak level 98.9 %
Extraction speed 16.0 X
Track quality 100.0 %
Test CRC 2FB320E6
Copy CRC 2FB320E6
Track not present in AccurateRip database
Copy OK

Track 9

Filename C:\Users\leomarco\Contacts\Desktop\09 - Nos Barracos Da Cidade.flac

Peak level 98.8 %
Extraction speed 16.7 X
Track quality 100.0 %
Test CRC D3E3603B
Copy CRC D3E3603B
Track not present in AccurateRip database
Copy OK

Track 10

Filename C:\Users\leomarco\Contacts\Desktop\10 - A Paz (Leila IV).flac

Peak level 98.0 %
Extraction speed 16.6 X
Track quality 100.0 %
Test CRC 038DFBEC
Copy CRC 038DFBEC
Track not present in AccurateRip database
Copy OK

Track 11

Filename C:\Users\leomarco\Contacts\Desktop\11 - Esotérico.flac

Peak level 98.1 %
Extraction speed 18.0 X
Track quality 100.0 %
Test CRC 5861D38D
Copy CRC 5861D38D
Track not present in AccurateRip database
Copy OK

Track 12

Filename C:\Users\leomarco\Contacts\Desktop\12 - Quanta.flac

Peak level 88.1 %
Extraction speed 17.7 X
Track quality 99.9 %
Test CRC 98858848
Copy CRC 98858848
Track not present in AccurateRip database
Copy OK

Track 13

Filename C:\Users\leomarco\Contacts\Desktop\13 - Aquele Abraço.flac

Peak level 98.8 %
Extraction speed 18.5 X
Track quality 100.0 %
Test CRC CF8BEDBD
Copy CRC CF8BEDBD
Track not present in AccurateRip database
Copy OK

Track 14

Filename C:\Users\leomarco\Contacts\Desktop\14 - Soy Loco Por Ti, América.flac

Peak level 98.8 %
Extraction speed 10.1 X
Track quality 100.0 %
Test CRC 070C960B
Copy CRC 070C960B
Track not present in AccurateRip database
Copy OK


None of the tracks are present in the AccurateRip database

No errors occurred

End of status report

==== Log checksum 651BA0A91AB86CB04565B86AE1BBF9F3E4D4F4536BBF5E040C90F8DC135E09D9 ====
http://img521.imageshack.us/img521/763/progettobandaeseed.jpg

Per i primi 10: 24 su 24:80/90 Kb/s

Related torrents

Torrent NameAddedSizeSeedLeechHealth
1 Year+ - in Music335.93 MB00
Verified torrent
1 Year+ - in Music460.96 MB145
1 Year+ - in Music416.57 MB136
Verified torrent
1 Year+ - in Music142.89 MB829
1 Year+ - in Music43.78 MB00

Comments (0 Comments)




Please login or create a FREE account to post comments

Latest Searches

| roxy dee ginger fox threesome | sniper SPECIAL ops | rush imax | small breasts xxx | red cafe mgk | tiny breasts xxx | westworld webrip fum | adobe photoshop 2015 64bit crack | Dita Saxova | rick ross sorry feat chris brown |