Quick Browse
Movies
TV shows
Music
Games
Applications
Anime
Other
Facebook
Advertising

Friends
Torrent Download
Movie4u
1337x.to
Torrent Downloads




Verified torrent Gioventu, amore e rabbia (1962) Tony Richardson [XviD - Italian Ac3] MIRCrew


    Seeders : 1      Leechers : 2

Trackers List

Tracker NameLast CheckStatusSeedersLeechers




Torrent File Content (1 file)


     Gioventù, amore e rabbia (1962) Tony Richardson.avi -
1.28 GB



Description



Gioventù, amore e rabbia (1962) Tony Richardson [XviD - Italian Ac3] MIRCrew



[color=black]
http://img24.imageshack.us/img24/4012/mircrewrel02.gif


*********************************************

[URL=http://www.imdb.it/title/tt0056194/]
http://img197.imageshack.us/img197/1332/imdblogo.gif
[/URL]

Gioventù, amore e rabbia (1962) Tony Richardson

http://i752.photobucket.com/albums/xx170/robbyrs/77177_100858233319064_2502715_n.jpg


http://s19.postimage.org/bgh0za7kj/banner_scheda.gif



TITOLO ORIGINALE: The Loneliness of the Long Distance Runner
GENERE: Drammatico, Sociale
REGIA: Tony Richardson
SCENEGGIATURA: Alan Sillitoe
FOTOGRAFIA: Walter Lassally
MONTAGGIO: Antony Gibbs
MUSICHE: John Addison
PRODUZIONE: LION INTERNATIONAL FILM (LONDON)
DISTRIBUZIONE: MEDUSA
PAESE: Gran Bretagna 1962
DURATA: 104 Min
FORMATO: PANORAMICA
SOGGETTO: Novella di Alan Sillitoe

*********************

Scritto da Alan Silitoe a partire da un proprio romanzo, un film avvincente e libertario che divenne il manifesto del Free Cinema e dei giovani arrabbiati inglesi.

http://i752.photobucket.com/albums/xx170/robbyrs/vlcsnap-2012-12-19-15h41m20s108.jpg

http://i752.photobucket.com/albums/xx170/robbyrs/vlcsnap-2012-12-19-15h41m27s181.jpg

http://i752.photobucket.com/albums/xx170/robbyrs/vlcsnap-2012-12-19-15h42m07s20.jpg


http://s19.postimage.org/fbp0flg3z/banner_cast.gif


Tom Courtenay, Michael Redgrave, Avis Bunnage, Alec Mecowen, James Bolam, Joe Rombinson


http://s19.postimage.org/i9hdvjydv/banner_trama.gif


Colin Smith, in riformatorio per furto, è un bravissimo corridore. Vincere l'annuale gara campestre vorrebbe dire rimettersi in pace con il mondo, con il direttore del riformatorio e con se

stesso. A pochi metri dall'arrivo e con grande vantaggio sul secondo, Colin.............................


http://i.imgur.com/cWb6Z.gif





http://s19.postimage.org/f07k2tzo3/banner_dati_file.gif


General
Complete name : Gioventù, amore e rabbia (1962) Tony Richardson.avi
Format : AVI
Format/Info : Audio Video Interleave
File size : 1.28 GiB
Duration : 1h 39mn
Overall bit rate : 1 838 Kbps
Writing application : VirtualDubMod 1.5.10.2 (build 2540/release)
Writing library : VirtualDubMod build 2540/release

Video
ID : 0
Format : MPEG-4 Visual
Format profile : Advanced [email protected]
Format settings, BVOP : Yes
Format settings, QPel : No
Format settings, GMC : No warppoints
Format settings, Matrix : Default (H.263)
Muxing mode : Packed bitstream
Codec ID : XVID
Codec ID/Hint : XviD
Duration : 1h 39mn
Bit rate : 1 637 Kbps
Width : 720 pixels
Height : 440 pixels
Display aspect ratio : 1.636
Frame rate : 25.000 fps
Color space : YUV
Chroma subsampling : 4:2:0
Bit depth : 8 bits
Scan type : Progressive
Bits/(Pixel*Frame) : 0.207
Stream size : 1.14 GiB (89%)
Writing library : XviD 1.1.2 (UTC 2006-11-01)

Audio
ID : 1
Format : AC-3
Format/Info : Audio Coding 3
Mode extension : CM (complete main)
Codec ID : 2000
Duration : 1h 39mn
Bit rate mode : Constant
Bit rate : 192 Kbps
Channel(s) : 2 channels
Channel positions : Front: L R
Sampling rate : 48.0 KHz
Bit depth : 16 bits
Stream size : 137 MiB (10%)
Alignment : Aligned on interleaves
Interleave, duration : 40 ms (1.00 video frame)
Interleave, preload duration : 512 ms



[/color]

Related torrents

Torrent NameAddedSizeSeedLeechHealth
1 Year+ - in Movies1.48 GB11
Verified torrent
11 months ago - in Movies1.46 GB00
Verified torrent
1 Year+ - in Movies1.44 GB10
Verified torrent
1 Year+ - in Movies1.09 GB11
Verified torrent
1 Year+ - in Movies1.27 GB11

Comments (0 Comments)




Please login or create a FREE account to post comments

Latest Searches

| Bridget Joness Baby 2016 1080p BluRay dts x264 | Gotham Girls x264 | Treat you better shawn better | LesbianSistas 13 07 10 Lola Larue And Daeja Monae 720p MP4 KTR rarbg | The Knick Season 3 HDTV XviD AFG Pawulon | what youve done to me Samantha jade | 01 24 24 2014 SATRip | Chelsea 2016 12 02 | Working Hard For Her | ttc capitalism |