Quick Browse
Movies
TV shows
Music
Games
Applications
Anime
Other
Facebook
Advertising

Friends
Torrent Download
Movie4u
1337x.to
Torrent Downloads




Gli eroi di Telemark - TnTVillage


    Seeders : 5      Leechers : 10
Hash :3863A7182B224BCEF40ABC77387493A2B3CEBB0D
Added :1 Year+ by gloryflowerVerified torrent uploader in Movies
Size :1 GB
Stream :WATCH ONLINE @ Movie4u


Gli eroi di Telemark - TnTVillage
Free and Fast Download with Usenet 300GB+ free







Trackers List

Tracker NameLast CheckStatusSeedersLeechers




Torrent File Content (1 file)


     Film - Guerra - Gli Eroi Di Telemark - K Douglas,R Harris.avi -
1 GB



Description



http://img542.imageshack.us/img542/453/olo.png

The Heroes of Telemark

http://img109.imageshack.us/img109/9203/lalocandinadiglieroidit.jpg


http://img38.imageshack.us/img38/7554/schedabn.png


regia: Anthony Mann
soggetto: John Drummond, Knut Haukeld
sceneggiatura: Ben Barzman, Ivan Moffat
fotografia: Robert Krasker
montaggio: Bert Bates
musiche: Malcolm Arnold
paese: UK
anno: 1965
durata: 131 min.
colore: B/N-Colore PANAVISION TECHNICOLOR
audio: sonoro
genere: guerra, azione, drammatico, storico
produzione: BENJAMIN FISZ PER BRUTON FILM PRODUCTIONS, THE RANK ORGANISATION FILM PRODUCTIONS LTD
distribuzione: RANK - GOLDEN VIDEO, LANTERNA HOME VIDEO


http://img706.imageshack.us/img706/948/castwa.png


Kirk Douglas : Dr. Rolf Pedersen
Richard Harris: Knut Straud
Ulla Jacobsson: Anna Pedersen
Michael Redgrave: zio di Anna
David Weston : Arne
Sebastian Breaks : Gunnar
John Golighty : Freddy
Alan Howard : Oli
Patrick Jordan: Henrik
William Marlowe : Claus
Brook Williams: Einar
Roy Dotrice: Jensen
Anton Diffring: Major Frick
Ralph Michael: Nilssen
Eric Porter: Terboven


http://img189.imageshack.us/img189/4911/tramak.png


Seconda Guerra Mondiale: i nazisti installano in Norvegia una fabbrica di acqua pesante, indispensabile per la costruzione della bomba atomica. Un eroico commando partigiano (dopo molti tentativi andati a vuoto) mette fuori uso gli impianti. I tedeschi li ripristinano in fretta e imbarcano per la Germania il prodotto radioattivo, ma i patrioti norvegesi riescono fortunosamente ad affondare il battello sul quale viaggia il materiale. (FilmTV.it)


http://img860.imageshack.us/img860/6357/recensioneb.png


Nel 1942, aiutato dai resistenti norvegesi, un commando USA tenta di sabotare l'importante impianto di Telemark dove i tedeschi fabbricano acqua pesante per la costruzione della bomba atomica. Ispirato a un episodio storico, è un discreto film d'azione, ma la tensione s'infiacca presto e genera una certa monotonia. C'è una bella fotografia di R. Krasker. Personaggi convenzionali. (Morandini)


http://img34.imageshack.us/img34/6632/screenshotshc.png


http://img94.imageshack.us/img94/2105/vlcsnap00001xk.png


http://img156.imageshack.us/img156/1848/vlcsnap00004ut.png





http://img194.imageshack.us/img194/7706/daecnici.png

(Mediainfo)

General
Complete name : Film - Guerra - Gli Eroi Di Telemark - K Douglas,R Harris.avi
Format : AVI
Format/Info : Audio Video Interleave
File size : 1.00 GiB
Duration : 2h 1mn
Overall bit rate : 1 175 Kbps
Writing library : VirtualDub build 15584/release

Video
ID : 0
Format : MPEG-4 Visual
Format settings, BVOP : No
Format settings, QPel : No
Format settings, GMC : No warppoints
Format settings, Matrix : Default (H.263)
Codec ID : DX50
Codec ID/Hint : DivX 5
Duration : 2h 1mn
Bit rate : 780 Kbps
Width : 512 pixels
Height : 384 pixels
Display aspect ratio : 4:3
Frame rate : 25.000 fps
Resolution : 8 bits
Colorimetry : 4:2:0
Scan type : Progressive
Bits/(Pixel*Frame) : 0.159
Stream size : 680 MiB (66%)
Writing library : DivX 5.2.1 (DrDivX 106) (UTC 2004-09-08)

Audio
Format : ADPCM
Codec ID : 11
Codec ID/Hint : Intel
Duration : 2h 1mn
Bit rate mode : Constant
Bit rate : 384 Kbps
Channel(s) : 2 channels
Sampling rate : 48.0 KHz
Resolution : 4 bits
Stream size : 336 MiB (33%)
Interleave, duration : 43 ms (1.06 video frame)
Interleave, preload duration : 467 ms

Related torrents

Torrent NameAddedSizeSeedLeechHealth
Verified torrent
1 Year+ - in Movies815.72 MB557
1 Year+ - in Other22.54 MB01
1 Year+ - in Movies1.33 GB1083
6 months ago - in Movies1.51 GB00
6 months ago - in Movies1.37 GB00

Comments (0 Comments)




Please login or create a FREE account to post comments

Latest Searches

| JAV Uncensored HD Creampie | Sapiens by Yuval Noah | Season 6 episode 3 American horror story | JEUNES MARIEES INFIDELES | audrey bitoni naughtyoffice 2013 | KarupsHA 16 11 26 Anastasia Rose Solo 1 XXX 720p MP4 KTRN1C | Dominative Assistant Kristina Rose Bridgette B | AO mutti | Jerry Lewis The Ladies Man 1961 | TheWhiteBoxxx PornDoePremium Nancy A Martin |