Quick Browse
Movies
TV shows
Music
Games
Applications
Anime
Other
Facebook
Friends
Torrent Download
Movie4u
1337x.to
Torrent Downloads

Verified torrent Gnomeo and Juliet (2011) DVDRip XviD-MAXSPEED


    Seeders : 52      Leechers : 14

Trackers List

Tracker NameLast CheckStatusSeedersLeechers
udp://tracker.publicbt.com:801 Year+success5214
udp://tracker.publicbt.com:80/announce1 Year+success5214
udp://tracker.openbittorrent.com:801 Year+success498
http://pow7.com/announce1 Year+success01




Torrent File Content (8 files)


Gnomeo and Juliet (2011) DVDRip XviD-MAXSPEED
     Gnomeo and Juliet (2011) DVDRip XviD-MAXSPEED www.torentz.3xforum.ro.avi -
1.29 GB

     sample.avi -
10.27 MB

     screencaps.jpeg -
706.24 KB

     Gnomeo and Juliet (2011) DVDRip XviD-MAXSPEED.nfo -
2.73 KB

     Torrent downloaded from Demonoid.me.txt -
46 bytes

     Torrent downloaded from Extratorrent.com.txt -
40 bytes

     Torrent downloaded from Rarbg.com.txt -
33 bytes

     Torrent downloaded from h33t.com.txt -
32 bytes



Description



http://i1.ambrybox.com/050511/1304546224426.jpg


Screens:

http://i1.ambrybox.com/050511/1304546245857.jpg

http://i1.ambrybox.com/050511/1304546258330.jpg

http://i1.ambrybox.com/050511/1304546271219.jpg

http://i1.ambrybox.com/050511/1304546294276.jpg


Alternative:

[code]http://www.postimg.com/image/36000/photo-35600.jpg
http://www.postimg.com/image/36000/photo-35601.jpg
http://www.postimg.com/image/36000/photo-35602.jpg
http://www.postimg.com/image/36000/photo-35603.jpg[/code]

ScreenCaps:

http://www.postimg.com/36000/photo-35604.jpg


[code]Gnomeo and Juliet (2011) DVDRip XviD-MAXSPEED

Format : AVI
Format/Info : Audio Video Interleave
Format profile : OpenDML
File size : 1.29 GiB
Duration : 1h 23mn
Overall bit rate : 2 195 Kbps
Writing application : VirtualDubMod 1.5.10.2 (build 2542/release)
Writing library : VirtualDubMod build 2542/release
Original source form : MAX TORRENTZ
Copyright : SIGISMUNT

Video
ID : 0
Format : MPEG-4 Visual
Format profile : [email protected]
Format settings, BVOP : Yes
Format settings, QPel : No
Format settings, GMC : No warppoints
Format settings, Matrix : Custom
Codec ID : XVID
Codec ID/Hint : XviD
Duration : 1h 23mn
Bit rate : 1 805 Kbps
Width : 720 pixels
Height : 384 pixels
Display aspect ratio : 1.875
Frame rate : 23.976 fps
Resolution : 24 bits
Colorimetry : 4:2:0
Scan type : Progressive
Bits/(Pixel*Frame) : 0.272
Stream size : 1.06 GiB (82%)
Writing library : XviD 58

Audio
ID : 1
Format : AC-3
Format/Info : Audio Coding 3
Codec ID : 2000
Duration : 1h 23mn
Bit rate mode : Constant
Bit rate : 384 Kbps
Channel(s) : 6 channels
Channel positions : Front: L C R, Surround: L R, LFE
Sampling rate : 48.0 KHz
Stream size : 230 MiB (17%)
Alignment : Aligned on interleaves
Interleave, duration : 64 ms (1.53 video frames)
Interleave, preload duration : 192 ms

Source: DVDR-TWiZTED (proper encode , perfect a/v/sync quality , sample included)

Uploader Note:This release it's not seedbox supported so please
leave it active as much possible,thanks
Next:I Am Number Four (2011) DVDRip XviD-MAXSPEED

Note:If you have something to offer as early releases,seedboxes,
links,accounts,etc please contact us on torentz 3xforum ro
Seed Stats: 20-400 GiB at aprox 10 MiB/sec/20 slots per torrent

How To Get Your Maxspeed (uTorrent)

Torrent Client - Preferences - Bandwidth - Number of connections - Set aprox. 500 for each
Torrent Client - Preferences - BiTorrent - Protocol Encryption - Forced
Bandwidth Allocation - High (Set download/upload limit - Unlimited)
Stop Other Active Torrents - Start downloading and wait for connections.
Enjoy and Seed for at least 1:1 ratio. Don't forget to say thanks/leave reviews.
Before downloading you should check/google search sample "release name""sample".
Greets to all actual/future p2p/scene QUALITY groups and affiliate websites.
Don't trust IMDb robot or bad ratings,always watch some trailers first.
Ignore stupid comments/fake/mislabeled/no-DVDrips/CAM/TS/RAR uploads.
Please spread this release/torrent to your friends/forums/etc.
If you need translation subs visit some subtitles sites.
Report if you see online streaming or other spam links.
Recommended movie player VLC PLAYER.[/code]

Related torrents

Torrent NameAddedSizeSeedLeechHealth
6 months ago - in Other4.37 GB00
6 months ago - in Other1.6 GB00
6 months ago - in Other1.01 GB00
6 months ago - in Movies1.06 GB00
1 Year+ - in Movies1.62 GB00

Comments (0 Comments)




Please login or create a FREE account to post comments

Latest Searches

| hamasaki ayumi complete | vybz last man standing | Miss Fishers murder mysteries season 1 | pitbull ft priyanka | Johnny Castle Keisha Grey | jessie joy | Skunk Anansie An Acoustic Skunk Anansie Live in London | reid fidelity | joy sports | Boston Bruins New York Islanders |